<?xml version="1.0" standalone="no"?>
<!DOCTYPE svg PUBLIC "-//W3C//DTD SVG 1.1//EN" "http://www.w3.org/Graphics/SVG/1.1/DTD/svg11.dtd" >
<svg xmlns="http://www.w3.org/2000/svg">
<metadata>Generated by IcoMoon</metadata>
<defs>
<font id="icomoon" horiz-adv-x="1024">
<font-face units-per-em="1024" ascent="870.4" descent="-153.6" />
<missing-glyph horiz-adv-x="1024" />
<glyph unicode="&#x20;" d="" />
<glyph unicode="&#xe818;" glyph-name="accordion" d="M960.512 608h-896c-35.84 0-64.512-28.672-64.512-63.488v-384c0-35.84 28.672-64.512 64.512-64.512h896c34.816 0 63.488 28.672 63.488 64.512v384c0 34.816-28.672 63.488-63.488 63.488zM980.992 160.512c0-12.288-9.216-21.504-20.48-21.504h-896c-12.288 0-21.504 9.216-21.504 21.504v384c0 11.264 9.216 20.48 21.504 20.48h896c11.264 0 20.48-9.216 20.48-20.48v-384zM106.496 692.992h811.008c11.264 0 21.504 10.24 21.504 21.504s-10.24 21.504-21.504 21.504h-811.008c-11.264 0-21.504-9.216-21.504-21.504s10.24-21.504 21.504-21.504zM106.496 820.992h811.008c11.264 0 21.504 10.24 21.504 21.504s-10.24 21.504-21.504 21.504h-811.008c-11.264 0-21.504-9.216-21.504-21.504s10.24-21.504 21.504-21.504zM917.504-116.992h-811.008c-11.264 0-21.504-10.24-21.504-21.504s10.24-21.504 21.504-21.504h811.008c11.264 0 21.504 9.216 21.504 21.504s-10.24 21.504-21.504 21.504zM917.504 11.008h-811.008c-11.264 0-21.504-10.24-21.504-21.504s10.24-21.504 21.504-21.504h811.008c11.264 0 21.504 9.216 21.504 21.504s-10.24 21.504-21.504 21.504z" />
<glyph unicode="&#xe819;" glyph-name="alert" d="M512 842.496c-270.336 0-490.496-220.16-490.496-490.496s220.16-490.496 490.496-490.496 490.496 220.16 490.496 490.496-220.16 490.496-490.496 490.496zM512-96.512c-246.784 0-447.488 201.728-447.488 448.512s200.704 448.512 447.488 448.512 448.512-201.728 448.512-448.512-201.728-448.512-448.512-448.512zM512 458.496c-34.816 0-63.488-28.672-63.488-63.488v-256c0-35.84 28.672-64.512 63.488-64.512s64.512 28.672 64.512 64.512v256c0 34.816-28.672 63.488-64.512 63.488zM533.504 139.008c0-12.288-9.216-21.504-21.504-21.504s-21.504 9.216-21.504 21.504v256c0 11.264 10.24 21.504 21.504 21.504s21.504-10.24 21.504-21.504v-256zM512 629.504c-34.816 0-63.488-28.672-63.488-64.512s28.672-63.488 63.488-63.488 64.512 28.672 64.512 63.488-28.672 64.512-64.512 64.512zM512 544.512c-11.264 0-21.504 9.216-21.504 20.48s10.24 21.504 21.504 21.504 21.504-9.216 21.504-21.504-9.216-20.48-21.504-20.48z" />
<glyph unicode="&#xe81a;" glyph-name="animation-text" d="M168.96 551.68c-6.144 16.384-33.792 16.384-39.936 0l-128-340.992c-4.096-11.264 2.048-23.552 13.312-27.648 10.24-4.096 22.528 1.024 26.624 12.288l43.008 114.688c1.024 0 1.024-1.024 1.024-1.024h128c1.024 0 1.024 1.024 1.024 1.024l43.008-114.688c4.096-8.192 11.264-14.336 20.48-14.336 2.048 0 5.12 1.024 7.168 2.048 11.264 4.096 16.384 16.384 12.288 27.648l-128 340.992zM100.352 352l49.152 131.072 49.152-131.072h-98.304zM704.512 436.992c34.816 0 63.488-28.672 63.488-63.488 0-12.288 9.216-21.504 21.504-21.504s21.504 9.216 21.504 21.504c0 58.368-48.128 106.496-106.496 106.496s-107.52-48.128-107.52-106.496v-84.992c0-59.392 48.128-107.52 107.52-107.52s106.496 48.128 106.496 107.52c0 11.264-10.24 20.48-21.504 20.48s-21.504-9.216-21.504-20.48c0-35.84-28.672-64.512-63.488-64.512s-64.512 28.672-64.512 64.512v84.992c0 34.816 28.672 63.488 64.512 63.488zM448.512 480c-24.576 0-46.080-8.192-64.512-21.504v86.016c0 11.264-9.216 20.48-21.504 20.48s-21.504-9.216-21.504-20.48v-342.016c0-11.264 10.24-21.504 21.504-21.504s21.504 10.24 21.504 21.504v1.024c18.432-13.312 39.936-22.528 64.512-22.528 58.368 0 106.496 48.128 106.496 107.52v84.992c0 58.368-48.128 106.496-106.496 106.496zM512 288.512c0-35.84-28.672-64.512-63.488-64.512s-64.512 28.672-64.512 64.512v84.992c0 34.816 28.672 63.488 64.512 63.488s63.488-28.672 63.488-63.488v-84.992zM1020.928 43.776c-1.024 2.048-27.648 41.984-81.92 50.176v215.040h21.504c11.264 0 20.48 10.24 20.48 21.504s-9.216 21.504-20.48 21.504h-21.504v258.048c54.272 9.216 80.896 49.152 81.92 50.176 6.144 10.24 3.072 23.552-7.168 29.696-9.216 6.144-22.528 3.072-28.672-6.144-1.024-2.048-22.528-32.768-67.584-32.768s-66.56 30.72-67.584 32.768c-6.144 9.216-19.456 12.288-28.672 6.144-10.24-6.144-13.312-19.456-7.168-28.672 1.024-2.048 26.624-41.984 81.92-51.2v-258.048h-21.504c-11.264 0-21.504-9.216-21.504-21.504s10.24-21.504 21.504-21.504h21.504v-215.040c-55.296-8.192-80.896-49.152-81.92-50.176-6.144-10.24-3.072-23.552 6.144-29.696 10.24-6.144 23.552-3.072 29.696 6.144 1.024 2.048 22.528 32.768 67.584 32.768s66.56-30.72 67.584-31.744c4.096-7.168 10.24-10.24 17.408-10.24 4.096 0 8.192 1.024 11.264 3.072 10.24 6.144 13.312 19.456 7.168 29.696z" />
<glyph unicode="&#xe81b;" glyph-name="animation" d="M996.352 367.36l-212.992 212.992c-2.048 2.048-4.096 4.096-7.168 5.12-1.024 0-2.048 0-3.072 0-2.048 1.024-3.072 1.024-5.12 1.024-1.024 0-2.048 0-3.072 0-2.048-1.024-3.072-1.024-5.12-1.024-2.048-1.024-5.12-3.072-7.168-5.12v0l-212.992-212.992c-8.192-8.192-8.192-22.528 0-30.72l212.992-212.992c1.024-1.024 2.048-1.024 3.072-2.048s2.048-2.048 4.096-2.048c3.072-2.048 5.12-2.048 8.192-2.048s5.12 0 8.192 2.048c2.048 0 4.096 2.048 6.144 4.096 0 0 1.024 0 1.024 0l212.992 212.992c8.192 8.192 8.192 22.528 0 30.72zM649.216 288.512l97.28 97.28v-67.584l-63.488-63.488-33.792 33.792zM746.496 257.792v-67.584l-33.792 33.792 33.792 33.792zM746.496 513.792v-67.584l-128-128-33.792 33.792 161.792 161.792zM789.504 190.208v323.584l161.792-161.792-161.792-161.792zM356.352 495.36c-8.192 8.192-21.504 8.192-29.696 0l-128-128c-8.192-8.192-8.192-22.528 0-30.72l128-128c4.096-4.096 9.216-6.144 14.336-6.144 6.144 0 11.264 2.048 15.36 6.144 8.192 8.192 8.192 22.528 0 30.72l-112.64 112.64 112.64 112.64c8.192 8.192 8.192 22.528 0 30.72zM414.72 352l154.624 155.648c9.216 8.192 9.216 21.504 0 29.696s-21.504 9.216-29.696 0l-171.008-169.984c-8.192-8.192-8.192-22.528 0-30.72l171.008-169.984c4.096-4.096 9.216-6.144 15.36-6.144s10.24 2.048 14.336 6.144c9.216 8.192 9.216 21.504 0 29.696l-154.624 155.648zM143.36 452.352c-8.192 8.192-22.528 8.192-30.72 0l-84.992-84.992c-8.192-8.192-8.192-22.528 0-30.72l84.992-84.992c4.096-4.096 10.24-6.144 15.36-6.144s11.264 2.048 15.36 6.144c8.192 8.192 8.192 21.504 0 29.696l-70.656 70.656 70.656 70.656c8.192 8.192 8.192 21.504 0 29.696z" />
<glyph unicode="&#xe81c;" glyph-name="banner" d="M1022.976 380.672c-2.048 6.144-7.168 11.264-13.312 13.312l-115.712 37.888 22.528 107.52c2.048 6.144 1.024 11.264-3.072 16.384-3.072 5.12-7.168 8.192-13.312 9.216-9.216 2.048-225.28 43.008-388.096 43.008s-378.88-40.96-388.096-43.008c-5.12-1.024-10.24-4.096-13.312-9.216s-4.096-10.24-3.072-16.384l22.528-107.52-115.712-37.888c-6.144-2.048-10.24-7.168-13.312-13.312-2.048-6.144-1.024-12.288 2.048-18.432l60.416-100.352-20.48-141.312c-1.024-7.168 2.048-15.36 7.168-19.456 4.096-3.072 9.216-5.12 14.336-5.12 2.048 0 4.096 0 7.168 1.024 1.024 1.024 173.056 63.488 248.832 63.488 6.144 0 12.288 3.072 16.384 8.192s5.12 11.264 4.096 18.432l-16.384 63.488c55.296 8.192 120.832 16.384 187.392 16.384s132.096-8.192 187.392-16.384l-16.384-64.512c-1.024-6.144 0-12.288 4.096-17.408s10.24-8.192 17.408-8.192c74.752 0 246.784-62.464 247.808-63.488 3.072-1.024 5.12-1.024 8.192-1.024 4.096 0 9.216 2.048 13.312 5.12 5.12 4.096 8.192 12.288 7.168 19.456l-20.48 141.312 60.416 100.352c3.072 6.144 4.096 12.288 2.048 18.432zM292.864 201.472c-63.488-7.168-154.624-35.84-202.752-52.224l16.384 114.688c1.024 5.12 0 9.216-3.072 14.336l-50.176 82.944 86.016 28.672 31.744-148.48c1.024-6.144 5.12-11.264 10.24-14.336 3.072-2.048 7.168-3.072 11.264-3.072 1.024 0 3.072 0 5.12 1.024 1.024 0 33.792 9.216 84.992 18.432l10.24-41.984zM512 308.992c-128 0-253.952-25.6-304.128-37.888l-54.272 256c59.392 10.24 228.352 37.888 358.4 37.888s299.008-27.648 358.4-37.888l-54.272-256c-50.176 12.288-176.128 37.888-304.128 37.888zM920.576 277.248c-3.072-4.096-4.096-8.192-3.072-13.312l16.384-114.688c-48.128 16.384-139.264 45.056-202.752 52.224l10.24 41.984c51.2-9.216 83.968-18.432 84.992-18.432 6.144-2.048 12.288-1.024 16.384 2.048 5.12 3.072 9.216 8.192 10.24 14.336l31.744 148.48 86.016-28.672-50.176-83.968z" />
<glyph unicode="&#xe81d;" glyph-name="blockquote" d="M405.504 692.992h-299.008c-34.816 0-63.488-28.672-63.488-63.488v-299.008c0-34.816 28.672-63.488 63.488-63.488h106.496v-70.656c0-40.96-22.528-76.8-58.368-95.232l-100.352-50.176c-8.192-4.096-13.312-14.336-11.264-23.552 2.048-10.24 11.264-16.384 21.504-16.384h144.384c101.376 0 190.464 64.512 222.208 159.744 25.6 75.776 37.888 153.6 37.888 233.472v225.28c0 34.816-28.672 63.488-63.488 63.488zM427.008 404.224c0-74.752-12.288-148.48-35.84-219.136-26.624-78.848-99.328-132.096-182.272-132.096h-54.272l18.432 10.24c51.2 25.6 82.944 76.8 82.944 133.12v92.16c0 11.264-9.216 20.48-21.504 20.48h-128c-11.264 0-21.504 10.24-21.504 21.504v299.008c0 11.264 10.24 21.504 21.504 21.504h299.008c11.264 0 21.504-10.24 21.504-21.504 0 0 0-225.28 0-225.28zM917.504 692.992h-299.008c-34.816 0-63.488-28.672-63.488-63.488v-299.008c0-34.816 28.672-63.488 63.488-63.488h106.496v-70.656c0-40.96-22.528-76.8-58.368-95.232l-100.352-50.176c-8.192-4.096-13.312-14.336-11.264-23.552 2.048-10.24 11.264-16.384 21.504-16.384h144.384c101.376 0 190.464 64.512 222.208 159.744 25.6 75.776 37.888 153.6 37.888 233.472v225.28c0 34.816-28.672 63.488-63.488 63.488zM939.008 404.224c0-74.752-12.288-148.48-35.84-219.136-26.624-78.848-99.328-132.096-182.272-132.096h-54.272l18.432 10.24c51.2 25.6 82.944 76.8 82.944 133.12v92.16c0 11.264-9.216 20.48-21.504 20.48h-128c-11.264 0-21.504 10.24-21.504 21.504v299.008c0 11.264 10.24 21.504 21.504 21.504h299.008c11.264 0 21.504-10.24 21.504-21.504v-225.28z" />
<glyph unicode="&#xe81e;" glyph-name="button" d="M461.824 474.88c-6.144 5.12-15.36 7.168-22.528 3.072-8.192-3.072-12.288-11.264-12.288-19.456v-384c0-8.192 5.12-16.384 13.312-19.456 7.168-3.072 16.384-1.024 22.528 4.096l64.512 64.512 72.704-144.384c2.048-5.12 7.168-9.216 12.288-10.24 2.048-1.024 4.096-1.024 6.144-1.024 4.096 0 8.192 1.024 11.264 3.072l95.232 55.296c5.12 3.072 8.192 8.192 10.24 13.312 1.024 6.144 0 11.264-3.072 16.384l-75.776 124.928h90.112c9.216 0 17.408 6.144 20.48 14.336s0 17.408-6.144 23.552l-299.008 256zM618.496 224c-7.168 0-14.336-4.096-18.432-11.264-4.096-6.144-4.096-14.336 0-21.504l84.992-138.24-57.344-33.792-74.752 150.528c-3.072 6.144-9.216 10.24-16.384 11.264-1.024 0-2.048 0-3.072 0-6.144 0-11.264-2.048-15.36-6.144l-49.152-48.128v285.696l220.16-188.416c0 0-70.656 0-70.656 0zM917.504 736h-811.008c-58.368 0-106.496-48.128-106.496-106.496v-256c0-59.392 48.128-106.496 106.496-106.496h256c12.288 0 21.504 9.216 21.504 21.504s-9.216 20.48-21.504 20.48h-256c-34.816 0-63.488 28.672-63.488 64.512v256c0 34.816 28.672 63.488 63.488 63.488h811.008c34.816 0 63.488-28.672 63.488-63.488v-256c0-35.84-28.672-64.512-63.488-64.512h-149.504c-11.264 0-21.504-9.216-21.504-20.48s10.24-21.504 21.504-21.504h149.504c58.368 0 106.496 47.104 106.496 106.496v256c0 58.368-48.128 106.496-106.496 106.496z" />
<glyph unicode="&#xe81f;" glyph-name="call-to-action" d="M960.512 629.504h-896c-35.84 0-64.512-28.672-64.512-64.512v-425.984c0-35.84 28.672-64.512 64.512-64.512h896c34.816 0 63.488 28.672 63.488 64.512v425.984c0 35.84-28.672 64.512-63.488 64.512zM980.992 139.008c0-12.288-9.216-21.504-20.48-21.504h-896c-12.288 0-21.504 9.216-21.504 21.504v425.984c0 12.288 9.216 21.504 21.504 21.504h896c11.264 0 20.48-9.216 20.48-21.504v-425.984zM746.496 501.504c-81.92 0-149.504-67.584-149.504-149.504s67.584-149.504 149.504-149.504 149.504 67.584 149.504 149.504-66.56 149.504-149.504 149.504zM746.496 245.504c-58.368 0-106.496 48.128-106.496 106.496s48.128 106.496 106.496 106.496 106.496-48.128 106.496-106.496-47.104-106.496-106.496-106.496zM490.496 245.504h-340.992c-12.288 0-21.504-9.216-21.504-21.504s9.216-21.504 21.504-21.504h340.992c12.288 0 21.504 10.24 21.504 21.504s-9.216 21.504-21.504 21.504zM490.496 373.504h-340.992c-12.288 0-21.504-9.216-21.504-21.504s9.216-21.504 21.504-21.504h340.992c12.288 0 21.504 10.24 21.504 21.504s-9.216 21.504-21.504 21.504zM490.496 501.504h-340.992c-12.288 0-21.504-9.216-21.504-21.504s9.216-21.504 21.504-21.504h340.992c12.288 0 21.504 10.24 21.504 21.504s-9.216 21.504-21.504 21.504z" />
<glyph unicode="&#xe820;" glyph-name="captcha" d="M106.496 245.504c-11.264 0-21.504-9.216-21.504-21.504s-9.216-21.504-20.48-21.504-21.504 10.24-21.504 21.504v84.992c0 12.288 9.216 21.504 21.504 21.504s20.48-9.216 20.48-21.504 10.24-20.48 21.504-20.48 21.504 9.216 21.504 20.48c0 35.84-28.672 64.512-63.488 64.512s-64.512-28.672-64.512-64.512v-84.992c0-34.816 28.672-63.488 64.512-63.488s63.488 28.672 63.488 63.488c0 12.288-9.216 21.504-21.504 21.504zM533.504 352c11.264 0 21.504-9.216 21.504-21.504s9.216-21.504 21.504-21.504 20.48 10.24 20.48 21.504c0 35.84-28.672 64.512-63.488 64.512s-64.512-28.672-64.512-64.512v-84.992c0-35.84 28.672-64.512 64.512-64.512s63.488 28.672 63.488 64.512c0 11.264-9.216 21.504-20.48 21.504s-21.504-10.24-21.504-21.504-10.24-21.504-21.504-21.504-21.504 9.216-21.504 21.504v84.992c0 12.288 9.216 21.504 21.504 21.504zM1022.976 189.184l-64.512 169.984c-6.144 17.408-33.792 17.408-39.936 0l-63.488-169.984c-4.096-11.264 1.024-23.552 12.288-27.648s23.552 1.024 27.648 12.288l10.24 28.672h66.56l11.264-28.672c3.072-8.192 11.264-13.312 19.456-13.312 3.072 0 5.12 0 8.192 1.024 10.24 4.096 16.384 16.384 12.288 27.648zM921.6 245.504l17.408 46.080 17.408-46.080h-34.816zM233.472 274.176c-6.144 16.384-33.792 16.384-39.936 0l-64.512-171.008c-4.096-10.24 2.048-22.528 13.312-26.624 10.24-4.096 22.528 1.024 26.624 12.288l11.264 28.672h66.56l10.24-28.672c4.096-9.216 11.264-14.336 20.48-14.336 2.048 0 5.12 1.024 7.168 2.048 11.264 4.096 16.384 16.384 12.288 26.624l-63.488 171.008zM196.608 160.512l16.384 45.056 17.408-45.056h-33.792zM362.496 458.496h-41.984c-12.288 0-21.504-9.216-21.504-21.504v-169.984c0-12.288 9.216-21.504 21.504-21.504s20.48 9.216 20.48 21.504v63.488h21.504c35.84 0 64.512 28.672 64.512 64.512s-28.672 63.488-64.512 63.488zM362.496 373.504h-21.504v43.008h21.504c12.288 0 21.504-10.24 21.504-21.504s-9.216-21.504-21.504-21.504zM789.504 288.512c-12.288 0-21.504-10.24-21.504-21.504v-64.512h-84.992v64.512c0 11.264-10.24 21.504-21.504 21.504s-21.504-10.24-21.504-21.504v-171.008c0-11.264 9.216-21.504 21.504-21.504s21.504 10.24 21.504 21.504v64.512h84.992v-64.512c0-11.264 9.216-21.504 21.504-21.504s21.504 10.24 21.504 21.504v171.008c0 11.264-10.24 21.504-21.504 21.504zM468.992 436.992c0-11.264 10.24-20.48 21.504-20.48s21.504 9.216 21.504 20.48v149.504h43.008c11.264 0 21.504 10.24 21.504 21.504s-10.24 21.504-21.504 21.504h-128c-12.288 0-21.504-9.216-21.504-21.504s9.216-21.504 21.504-21.504h41.984v-149.504z" />
<glyph unicode="&#xe821;" glyph-name="carousel1" d="M100.352 409.344c-8.192 9.216-21.504 9.216-29.696 0l-43.008-41.984c-8.192-8.192-8.192-22.528 0-30.72l43.008-41.984c4.096-4.096 9.216-6.144 14.336-6.144s11.264 2.048 15.36 6.144c8.192 8.192 8.192 21.504 0 29.696l-27.648 27.648 27.648 27.648c8.192 8.192 8.192 21.504 0 29.696zM996.352 367.36l-43.008 41.984c-8.192 9.216-21.504 9.216-29.696 0s-8.192-21.504 0-29.696l27.648-27.648-27.648-27.648c-8.192-8.192-8.192-21.504 0-29.696 4.096-4.096 9.216-6.144 15.36-6.144s10.24 2.048 14.336 6.144l43.008 41.984c8.192 8.192 8.192 22.528 0 30.72zM340.992 436.992h-169.984c-12.288 0-21.504-9.216-21.504-20.48v-128c0-12.288 9.216-21.504 21.504-21.504h169.984c12.288 0 21.504 9.216 21.504 21.504v128c0 11.264-9.216 20.48-21.504 20.48zM320.512 308.992h-128v86.016h128v-86.016zM596.992 436.992h-169.984c-12.288 0-21.504-9.216-21.504-20.48v-128c0-12.288 9.216-21.504 21.504-21.504h169.984c12.288 0 21.504 9.216 21.504 21.504v128c0 11.264-9.216 20.48-21.504 20.48zM576.512 308.992h-128v86.016h128v-86.016zM852.992 436.992h-169.984c-12.288 0-21.504-9.216-21.504-20.48v-128c0-12.288 9.216-21.504 21.504-21.504h169.984c12.288 0 21.504 9.216 21.504 21.504v128c0 11.264-9.216 20.48-21.504 20.48zM832.512 308.992h-128v86.016h128v-86.016z" />
<glyph unicode="&#xe822;" glyph-name="checkbox" d="M234.496 139.008h-169.984c-35.84 0-64.512-28.672-64.512-64.512v-171.008c0-34.816 28.672-63.488 64.512-63.488h169.984c35.84 0 64.512 28.672 64.512 63.488v171.008c0 35.84-28.672 64.512-64.512 64.512zM256-96.512c0-11.264-9.216-20.48-21.504-20.48h-169.984c-12.288 0-21.504 9.216-21.504 20.48v171.008c0 12.288 9.216 21.504 21.504 21.504h169.984c12.288 0 21.504-9.216 21.504-21.504v-171.008zM405.504 651.008h596.992c12.288 0 21.504 9.216 21.504 21.504s-9.216 20.48-21.504 20.48h-596.992c-12.288 0-21.504-9.216-21.504-20.48s9.216-21.504 21.504-21.504zM1002.496 352h-596.992c-12.288 0-21.504-9.216-21.504-21.504s9.216-21.504 21.504-21.504h596.992c12.288 0 21.504 10.24 21.504 21.504s-9.216 21.504-21.504 21.504zM1002.496 11.008h-596.992c-12.288 0-21.504-10.24-21.504-21.504s9.216-21.504 21.504-21.504h596.992c12.288 0 21.504 9.216 21.504 21.504s-9.216 21.504-21.504 21.504zM302.080 854.784l-30.72-45.056c-10.24 7.168-23.552 11.264-36.864 11.264h-169.984c-35.84 0-64.512-28.672-64.512-63.488v-171.008c0-34.816 28.672-63.488 64.512-63.488h169.984c35.84 0 64.512 28.672 64.512 63.488v171.008c0 5.12-1.024 10.24-2.048 14.336l40.96 58.368c6.144 10.24 4.096 23.552-6.144 29.696-9.216 7.168-22.528 5.12-29.696-5.12zM256 586.496c0-11.264-9.216-21.504-21.504-21.504h-169.984c-12.288 0-21.504 10.24-21.504 21.504v171.008c0 11.264 9.216 21.504 21.504 21.504h169.984c5.12 0 8.192-2.048 12.288-4.096l-78.848-112.64-46.080 46.080c-8.192 8.192-21.504 8.192-30.72 0s-8.192-21.504 0-29.696l64.512-64.512c4.096-4.096 9.216-6.144 15.36-6.144 0 0 1.024 0 2.048 0 6.144 1.024 11.264 4.096 15.36 9.216l67.584 97.28v-128zM302.080 513.792l-30.72-45.056c-10.24 7.168-23.552 11.264-36.864 11.264h-169.984c-35.84 0-64.512-28.672-64.512-63.488v-171.008c0-35.84 28.672-64.512 64.512-64.512h169.984c35.84 0 64.512 28.672 64.512 64.512v171.008c0 5.12-1.024 9.216-2.048 14.336l40.96 58.368c6.144 9.216 4.096 22.528-6.144 29.696-9.216 7.168-22.528 4.096-29.696-5.12zM256 245.504c0-12.288-9.216-21.504-21.504-21.504h-169.984c-12.288 0-21.504 9.216-21.504 21.504v171.008c0 11.264 9.216 20.48 21.504 20.48h169.984c5.12 0 8.192-1.024 12.288-3.072l-78.848-112.64-46.080 46.080c-8.192 8.192-21.504 8.192-30.72 0s-8.192-22.528 0-30.72l64.512-63.488c4.096-4.096 9.216-6.144 15.36-6.144 0 0 1.024 0 2.048 0 6.144 0 11.264 4.096 15.36 9.216l67.584 96.256v-126.976z" />
<glyph unicode="&#xe823;" glyph-name="columns" d="M448.512 692.992h-427.008c-12.288 0-21.504-9.216-21.504-20.48s9.216-21.504 21.504-21.504h427.008c11.264 0 20.48 9.216 20.48 21.504s-9.216 20.48-20.48 20.48zM448.512 564.992h-427.008c-12.288 0-21.504-9.216-21.504-20.48s9.216-21.504 21.504-21.504h427.008c11.264 0 20.48 9.216 20.48 21.504s-9.216 20.48-20.48 20.48zM448.512 436.992h-427.008c-12.288 0-21.504-9.216-21.504-20.48s9.216-21.504 21.504-21.504h427.008c11.264 0 20.48 9.216 20.48 21.504s-9.216 20.48-20.48 20.48zM448.512 308.992h-427.008c-12.288 0-21.504-9.216-21.504-20.48s9.216-21.504 21.504-21.504h427.008c11.264 0 20.48 9.216 20.48 21.504s-9.216 20.48-20.48 20.48zM448.512 180.992h-427.008c-12.288 0-21.504-9.216-21.504-20.48s9.216-21.504 21.504-21.504h427.008c11.264 0 20.48 9.216 20.48 21.504s-9.216 20.48-20.48 20.48zM320.512 52.992h-299.008c-12.288 0-21.504-9.216-21.504-20.48s9.216-21.504 21.504-21.504h299.008c11.264 0 20.48 9.216 20.48 21.504s-9.216 20.48-20.48 20.48zM576.512 651.008h425.984c12.288 0 21.504 9.216 21.504 21.504s-9.216 20.48-21.504 20.48h-425.984c-12.288 0-21.504-9.216-21.504-20.48s9.216-21.504 21.504-21.504zM1002.496 564.992h-425.984c-12.288 0-21.504-9.216-21.504-20.48s9.216-21.504 21.504-21.504h425.984c12.288 0 21.504 9.216 21.504 21.504s-9.216 20.48-21.504 20.48zM1002.496 436.992h-425.984c-12.288 0-21.504-9.216-21.504-20.48s9.216-21.504 21.504-21.504h425.984c12.288 0 21.504 9.216 21.504 21.504s-9.216 20.48-21.504 20.48zM1002.496 308.992h-425.984c-12.288 0-21.504-9.216-21.504-20.48s9.216-21.504 21.504-21.504h425.984c12.288 0 21.504 9.216 21.504 21.504s-9.216 20.48-21.504 20.48zM1002.496 180.992h-425.984c-12.288 0-21.504-9.216-21.504-20.48s9.216-21.504 21.504-21.504h425.984c12.288 0 21.504 9.216 21.504 21.504s-9.216 20.48-21.504 20.48zM874.496 52.992h-297.984c-12.288 0-21.504-9.216-21.504-20.48s9.216-21.504 21.504-21.504h297.984c12.288 0 21.504 9.216 21.504 21.504s-9.216 20.48-21.504 20.48z" />
<glyph unicode="&#xe824;" glyph-name="countdown" d="M797.696 632.576l51.2 69.632c7.168 9.216 5.12 22.528-4.096 29.696s-22.528 5.12-29.696-4.096l-51.2-69.632c-55.296 37.888-118.784 62.464-187.392 72.704v90.112h20.48c12.288 0 21.504 10.24 21.504 21.504s-9.216 21.504-21.504 21.504h-169.984c-12.288 0-21.504-9.216-21.504-21.504s9.216-21.504 21.504-21.504h21.504v-90.112c-68.608-10.24-133.12-34.816-187.392-71.68l-52.224 68.608c-7.168 9.216-20.48 11.264-29.696 4.096s-11.264-20.48-4.096-29.696l51.2-69.632c-99.328-81.92-161.792-205.824-161.792-344.064 0-247.808 200.704-448.512 447.488-448.512s448.512 200.704 448.512 448.512c0 138.24-63.488 262.144-162.816 344.064zM490.496 820.992h43.008v-86.016c-7.168 0-14.336 1.024-21.504 1.024s-14.336-1.024-21.504-1.024v86.016zM512-116.992c-223.232 0-405.504 181.248-405.504 405.504s182.272 404.48 405.504 404.48 405.504-181.248 405.504-404.48-182.272-405.504-405.504-405.504zM512 651.008c-11.264 0-21.504-10.24-21.504-21.504v-340.992c0-12.288 10.24-21.504 21.504-21.504h340.992c12.288 0 21.504 9.216 21.504 21.504 0 199.68-162.816 362.496-362.496 362.496zM533.504 308.992v297.984c159.744-10.24 287.744-138.24 297.984-297.984h-297.984z" />
<glyph unicode="&#xe825;" glyph-name="counter" d="M1017.856 591.616l-128 128c-2.048 1.024-4.096 3.072-7.168 4.096-1.024 1.024-3.072 1.024-4.096 1.024-2.048 0-3.072 1.024-4.096 1.024s-3.072-1.024-4.096-1.024c-1.024-1.024-3.072-1.024-4.096-1.024-2.048-1.024-5.12-3.072-7.168-5.12l-126.976-126.976c-9.216-9.216-9.216-22.528 0-30.72s21.504-8.192 29.696 0l91.136 91.136v-652.288c0-11.264 10.24-21.504 21.504-21.504s21.504 10.24 21.504 21.504v652.288l91.136-91.136c5.12-4.096 10.24-6.144 15.36-6.144s11.264 2.048 15.36 6.144c8.192 8.192 8.192 21.504 0 30.72zM112.64 510.72c-8.192 3.072-18.432 0-23.552-8.192l-84.992-128c-7.168-10.24-4.096-22.528 5.12-29.696 10.24-6.144 23.552-4.096 29.696 6.144l46.080 69.632v-271.36c0-11.264 10.24-21.504 21.504-21.504s21.504 10.24 21.504 21.504v340.992c0 10.24-6.144 18.432-15.36 20.48zM320.512 511.744c-59.392 0-107.52-47.104-107.52-106.496 0-11.264 10.24-21.504 21.504-21.504s21.504 10.24 21.504 21.504c0 35.84 28.672 64.512 64.512 64.512s63.488-28.672 63.488-64.512v-12.288c0-14.336-5.12-28.672-14.336-39.936l-151.552-190.464c-5.12-6.144-6.144-15.36-3.072-22.528 4.096-7.168 11.264-12.288 19.456-12.288h171.008c11.264 0 21.504 10.24 21.504 21.504s-10.24 21.504-21.504 21.504h-125.952l123.904 155.648c15.36 18.432 23.552 41.984 23.552 66.56v12.288c0 59.392-48.128 106.496-106.496 106.496zM724.992 405.248c0 59.392-47.104 106.496-106.496 106.496s-106.496-47.104-106.496-106.496c0-11.264 9.216-21.504 21.504-21.504s21.504 10.24 21.504 21.504c0 35.84 28.672 64.512 63.488 64.512s64.512-28.672 64.512-64.512-28.672-63.488-64.512-63.488c-11.264 0-21.504-10.24-21.504-21.504s10.24-21.504 21.504-21.504c35.84 0 64.512-28.672 64.512-64.512s-28.672-63.488-64.512-63.488-63.488 28.672-63.488 63.488c0 12.288-10.24 21.504-21.504 21.504s-21.504-9.216-21.504-21.504c0-58.368 48.128-106.496 106.496-106.496s106.496 48.128 106.496 106.496c0 35.84-16.384 66.56-41.984 86.016 25.6 19.456 41.984 50.176 41.984 84.992z" />
<glyph unicode="&#xe826;" glyph-name="date" d="M960.512 672.512h-896c-35.84 0-64.512-28.672-64.512-64.512v-512c0-34.816 28.672-63.488 64.512-63.488h896c34.816 0 63.488 28.672 63.488 63.488v512c0 35.84-28.672 64.512-63.488 64.512zM980.992 96c0-11.264-9.216-21.504-20.48-21.504h-896c-12.288 0-21.504 10.24-21.504 21.504v512c0 12.288 9.216 21.504 21.504 21.504h896c11.264 0 20.48-9.216 20.48-21.504v-512zM412.672 542.464c-11.264 4.096-23.552-1.024-27.648-12.288l-128-340.992c-4.096-11.264 2.048-23.552 13.312-27.648 2.048-1.024 4.096-1.024 7.168-1.024 8.192 0 16.384 5.12 19.456 13.312l128 340.992c4.096 11.264-1.024 23.552-12.288 27.648zM754.688 542.464c-11.264 4.096-23.552-1.024-27.648-12.288l-128-340.992c-4.096-11.264 1.024-23.552 12.288-27.648 2.048-1.024 5.12-1.024 7.168-1.024 9.216 0 17.408 5.12 20.48 13.312l128 340.992c4.096 11.264-2.048 23.552-12.288 27.648zM192.512 202.496h-86.016c-11.264 0-21.504-9.216-21.504-21.504 0-11.264 10.24-20.48 21.504-20.48h86.016c11.264 0 20.48 9.216 20.48 20.48s-9.216 21.504-20.48 21.504zM533.504 202.496h-171.008c-11.264 0-21.504-9.216-21.504-21.504 0-11.264 10.24-20.48 21.504-20.48h171.008c11.264 0 21.504 9.216 21.504 20.48s-10.24 21.504-21.504 21.504zM917.504 202.496h-212.992c-12.288 0-21.504-9.216-21.504-21.504 0-11.264 9.216-20.48 21.504-20.48h212.992c11.264 0 21.504 9.216 21.504 20.48s-10.24 21.504-21.504 21.504z" />
<glyph unicode="&#xe827;" glyph-name="divider-shape" d="M1014.784 412.416c-9.216 6.144-22.528 4.096-29.696-5.12-15.36-21.504-63.488-76.8-105.472-76.8-40.96 0-90.112 55.296-105.472 76.8-8.192 11.264-26.624 11.264-34.816 0-15.36-21.504-63.488-76.8-105.472-76.8s-89.088 55.296-104.448 76.8c-4.096 5.12-11.264 9.216-17.408 9.216-7.168 0-13.312-4.096-17.408-9.216-15.36-21.504-64.512-76.8-105.472-76.8s-90.112 55.296-105.472 76.8c-4.096 5.12-10.24 9.216-17.408 9.216-6.144 0-13.312-4.096-17.408-9.216-15.36-21.504-63.488-76.8-104.448-76.8-41.984 0-90.112 55.296-105.472 76.8-7.168 9.216-20.48 11.264-29.696 5.12-10.24-7.168-12.288-20.48-5.12-29.696 7.168-10.24 69.632-94.208 140.288-94.208 50.176 0 97.28 44.032 121.856 71.68 24.576-27.648 71.68-71.68 122.88-71.68s98.304 44.032 122.88 72.704c24.576-28.672 71.68-72.704 121.856-72.704 51.2 0 98.304 44.032 122.88 72.704 24.576-28.672 71.68-72.704 122.88-72.704 70.656 0 133.12 83.968 140.288 94.208 7.168 9.216 5.12 22.528-5.12 29.696z" />
<glyph unicode="&#xe828;" glyph-name="divider" d="M43.008 458.496h937.984c12.288 0 21.504 10.24 21.504 21.504s-9.216 21.504-21.504 21.504h-937.984c-12.288 0-21.504-9.216-21.504-21.504s9.216-21.504 21.504-21.504zM384 629.504h256c8.192 0 15.36 5.12 19.456 12.288s2.048 15.36-2.048 21.504l-128 171.008c-8.192 11.264-26.624 11.264-34.816 0l-128-171.008c-4.096-6.144-5.12-14.336-2.048-21.504 4.096-7.168 11.264-12.288 19.456-12.288zM512 786.176l84.992-113.664h-169.984l84.992 113.664zM640 74.496h-256c-8.192 0-15.36-4.096-19.456-11.264-3.072-7.168-2.048-16.384 2.048-22.528l128-171.008c4.096-5.12 11.264-8.192 17.408-8.192s13.312 3.072 17.408 8.192l128 171.008c4.096 6.144 5.12 15.36 2.048 22.528-4.096 7.168-11.264 11.264-19.456 11.264zM512-81.152l-84.992 113.664h169.984l-84.992-113.664zM980.992 245.504h-937.984c-12.288 0-21.504-9.216-21.504-21.504s9.216-21.504 21.504-21.504h937.984c12.288 0 21.504 10.24 21.504 21.504s-9.216 21.504-21.504 21.504z" />
<glyph unicode="&#xe82e;" glyph-name="form-horizontal" d="M21.504 820.992h980.992c12.288 0 21.504 10.24 21.504 21.504s-9.216 21.504-21.504 21.504h-980.992c-12.288 0-21.504-9.216-21.504-21.504s9.216-21.504 21.504-21.504zM1002.496 736h-980.992c-12.288 0-21.504-9.216-21.504-21.504s9.216-21.504 21.504-21.504h980.992c12.288 0 21.504 10.24 21.504 21.504s-9.216 21.504-21.504 21.504zM1002.496 608h-980.992c-12.288 0-21.504-9.216-21.504-21.504v-512c0-11.264 9.216-21.504 21.504-21.504h980.992c12.288 0 21.504 10.24 21.504 21.504v512c0 12.288-9.216 21.504-21.504 21.504zM43.008 564.992h937.984v-353.28l-114.688-115.712h-823.296v468.992zM926.72 96l54.272 55.296v-55.296h-54.272zM299.008 11.008h-214.016c-47.104 0-84.992-38.912-84.992-86.016s37.888-84.992 84.992-84.992h214.016c47.104 0 84.992 37.888 84.992 84.992s-37.888 86.016-84.992 86.016zM299.008-116.992h-214.016c-23.552 0-41.984 18.432-41.984 41.984s18.432 43.008 41.984 43.008h214.016c23.552 0 41.984-19.456 41.984-43.008s-18.432-41.984-41.984-41.984z" />
<glyph unicode="&#xe82f;" glyph-name="form-vertical" d="M277.504 436.992h-256c-12.288 0-21.504-9.216-21.504-20.48v-128c0-12.288 9.216-21.504 21.504-21.504h256c11.264 0 21.504 9.216 21.504 21.504v128c0 11.264-10.24 20.48-21.504 20.48zM256 308.992h-212.992v86.016h212.992v-86.016zM618.496 436.992h-256c-11.264 0-21.504-9.216-21.504-20.48v-128c0-12.288 10.24-21.504 21.504-21.504h256c12.288 0 21.504 9.216 21.504 21.504v128c0 11.264-9.216 20.48-21.504 20.48zM596.992 308.992h-212.992v86.016h212.992v-86.016zM939.008 436.992h-171.008c-47.104 0-84.992-37.888-84.992-84.992s37.888-84.992 84.992-84.992h171.008c47.104 0 84.992 37.888 84.992 84.992s-37.888 84.992-84.992 84.992zM939.008 308.992h-171.008c-23.552 0-43.008 19.456-43.008 43.008s19.456 43.008 43.008 43.008h171.008c23.552 0 41.984-19.456 41.984-43.008s-18.432-43.008-41.984-43.008z" />
<glyph unicode="&#xe830;" glyph-name="gallery-grid" d="M299.008 672.512h-256c-12.288 0-21.504-10.24-21.504-21.504v-256c0-12.288 9.216-21.504 21.504-21.504h256c11.264 0 21.504 9.216 21.504 21.504v256c0 11.264-10.24 21.504-21.504 21.504zM277.504 416.512h-212.992v212.992h212.992v-212.992zM640 672.512h-256c-11.264 0-21.504-10.24-21.504-21.504v-256c0-12.288 10.24-21.504 21.504-21.504h256c12.288 0 21.504 9.216 21.504 21.504v256c0 11.264-9.216 21.504-21.504 21.504zM618.496 416.512h-212.992v212.992h212.992v-212.992zM980.992 672.512h-256c-11.264 0-20.48-10.24-20.48-21.504v-256c0-12.288 9.216-21.504 20.48-21.504h256c12.288 0 21.504 9.216 21.504 21.504v256c0 11.264-9.216 21.504-21.504 21.504zM960.512 416.512h-214.016v212.992h214.016v-212.992zM299.008 330.496h-256c-12.288 0-21.504-9.216-21.504-21.504v-256c0-11.264 9.216-20.48 21.504-20.48h256c11.264 0 21.504 9.216 21.504 20.48v256c0 12.288-10.24 21.504-21.504 21.504zM277.504 74.496h-212.992v214.016h212.992v-214.016zM640 330.496h-256c-11.264 0-21.504-9.216-21.504-21.504v-256c0-11.264 10.24-20.48 21.504-20.48h256c12.288 0 21.504 9.216 21.504 20.48v256c0 12.288-9.216 21.504-21.504 21.504zM618.496 74.496h-212.992v214.016h212.992v-214.016zM980.992 330.496h-256c-11.264 0-20.48-9.216-20.48-21.504v-256c0-11.264 9.216-20.48 20.48-20.48h256c12.288 0 21.504 9.216 21.504 20.48v256c0 12.288-9.216 21.504-21.504 21.504zM960.512 74.496h-214.016v214.016h214.016v-214.016z" />
<glyph unicode="&#xe831;" glyph-name="gallery-group" d="M1002.496 629.504h-212.992c-12.288 0-21.504-9.216-21.504-21.504v-212.992c0-12.288 9.216-21.504 21.504-21.504h212.992c12.288 0 21.504 9.216 21.504 21.504v212.992c0 12.288-9.216 21.504-21.504 21.504zM980.992 416.512h-169.984v169.984h169.984v-169.984zM1002.496 330.496h-212.992c-12.288 0-21.504-9.216-21.504-21.504v-212.992c0-11.264 9.216-21.504 21.504-21.504h212.992c12.288 0 21.504 10.24 21.504 21.504v212.992c0 12.288-9.216 21.504-21.504 21.504zM980.992 117.504h-169.984v171.008h169.984v-171.008zM704.512 629.504h-683.008c-12.288 0-21.504-9.216-21.504-21.504v-512c0-11.264 9.216-21.504 21.504-21.504h683.008c11.264 0 20.48 10.24 20.48 21.504v512c0 12.288-9.216 21.504-20.48 21.504zM683.008 117.504h-640v468.992h640v-468.992z" />
<glyph unicode="&#xe832;" glyph-name="gallery-justified" d="M21.504 523.008h212.992c12.288 0 21.504 9.216 21.504 21.504v212.992c0 11.264-9.216 21.504-21.504 21.504h-212.992c-12.288 0-21.504-10.24-21.504-21.504v-212.992c0-12.288 9.216-21.504 21.504-21.504zM43.008 736h169.984v-171.008h-169.984v171.008zM320.512 523.008h384c11.264 0 20.48 9.216 20.48 21.504v212.992c0 11.264-9.216 21.504-20.48 21.504h-384c-12.288 0-21.504-10.24-21.504-21.504v-212.992c0-12.288 9.216-21.504 21.504-21.504zM340.992 736h342.016v-171.008h-342.016v171.008zM1002.496 779.008h-212.992c-12.288 0-21.504-10.24-21.504-21.504v-212.992c0-12.288 9.216-21.504 21.504-21.504h212.992c12.288 0 21.504 9.216 21.504 21.504v212.992c0 11.264-9.216 21.504-21.504 21.504zM980.992 564.992h-169.984v171.008h169.984v-171.008zM704.512 480h-214.016c-11.264 0-21.504-9.216-21.504-21.504v-212.992c0-12.288 10.24-21.504 21.504-21.504h214.016c11.264 0 20.48 9.216 20.48 21.504v212.992c0 12.288-9.216 21.504-20.48 21.504zM683.008 267.008h-171.008v169.984h171.008v-169.984zM21.504 224h384c11.264 0 21.504 9.216 21.504 21.504v212.992c0 12.288-10.24 21.504-21.504 21.504h-384c-12.288 0-21.504-9.216-21.504-21.504v-212.992c0-12.288 9.216-21.504 21.504-21.504zM43.008 436.992h340.992v-169.984h-340.992v169.984zM1002.496 480h-212.992c-12.288 0-21.504-9.216-21.504-21.504v-212.992c0-12.288 9.216-21.504 21.504-21.504h212.992c12.288 0 21.504 9.216 21.504 21.504v212.992c0 12.288-9.216 21.504-21.504 21.504zM980.992 267.008h-169.984v169.984h169.984v-169.984zM192.512 180.992h-171.008c-12.288 0-21.504-9.216-21.504-20.48v-214.016c0-11.264 9.216-21.504 21.504-21.504h171.008c11.264 0 20.48 10.24 20.48 21.504v214.016c0 11.264-9.216 20.48-20.48 20.48zM171.008-32h-128v171.008h128v-171.008zM618.496 180.992h-340.992c-12.288 0-21.504-9.216-21.504-20.48v-214.016c0-11.264 9.216-21.504 21.504-21.504h340.992c12.288 0 21.504 10.24 21.504 21.504v214.016c0 11.264-9.216 20.48-21.504 20.48zM596.992-32h-297.984v171.008h297.984v-171.008zM1002.496 180.992h-297.984c-12.288 0-21.504-9.216-21.504-20.48v-214.016c0-11.264 9.216-21.504 21.504-21.504h297.984c12.288 0 21.504 10.24 21.504 21.504v214.016c0 11.264-9.216 20.48-21.504 20.48zM980.992-32h-256v171.008h256v-171.008z" />
<glyph unicode="&#xe833;" glyph-name="gallery-masonry" d="M299.008 757.504h-256c-12.288 0-21.504-9.216-21.504-21.504v-256c0-11.264 9.216-21.504 21.504-21.504h256c11.264 0 21.504 10.24 21.504 21.504v256c0 12.288-10.24 21.504-21.504 21.504zM277.504 501.504h-212.992v212.992h212.992v-212.992zM640 757.504h-256c-11.264 0-21.504-9.216-21.504-21.504v-427.008c0-11.264 10.24-20.48 21.504-20.48h256c12.288 0 21.504 9.216 21.504 20.48v427.008c0 12.288-9.216 21.504-21.504 21.504zM618.496 330.496h-212.992v384h212.992v-384zM980.992 757.504h-256c-11.264 0-20.48-9.216-20.48-21.504v-340.992c0-12.288 9.216-21.504 20.48-21.504h256c12.288 0 21.504 9.216 21.504 21.504v340.992c0 12.288-9.216 21.504-21.504 21.504zM960.512 416.512h-214.016v297.984h214.016v-297.984zM299.008 416.512h-256c-12.288 0-21.504-10.24-21.504-21.504v-256c0-12.288 9.216-21.504 21.504-21.504h256c11.264 0 21.504 9.216 21.504 21.504v256c0 11.264-10.24 21.504-21.504 21.504zM277.504 160.512h-212.992v212.992h212.992v-212.992zM640 245.504h-256c-11.264 0-21.504-9.216-21.504-21.504v-256c0-12.288 10.24-21.504 21.504-21.504h256c12.288 0 21.504 9.216 21.504 21.504v256c0 12.288-9.216 21.504-21.504 21.504zM618.496-10.496h-212.992v212.992h212.992v-212.992zM980.992 330.496h-256c-11.264 0-20.48-9.216-20.48-21.504v-256c0-11.264 9.216-20.48 20.48-20.48h256c12.288 0 21.504 9.216 21.504 20.48v256c0 12.288-9.216 21.504-21.504 21.504zM960.512 74.496h-214.016v214.016h214.016v-214.016z" />
<glyph unicode="&#xe834;" glyph-name="icon-box" d="M874.496-116.992c13.312 0 21.504-9.216 21.504-21.504 0-9.216-8.192-17.408-17.408-21.504h-729.088c-13.312 0-21.504 8.192-21.504 21.504 0 8.192 8.192 16.384 17.408 21.504h729.088zM874.496-10.496c13.312 0 21.504-9.216 21.504-21.504s-8.192-21.504-21.504-21.504h-724.992c-13.312 0-21.504 8.192-21.504 21.504s8.192 21.504 21.504 21.504h724.992zM704.512 139.008c12.288 0 20.48-9.216 20.48-21.504s-8.192-21.504-20.48-21.504h-384c-13.312 0-21.504 8.192-21.504 21.504s8.192 21.504 21.504 21.504h384zM512 864c175.104 0 320.512-145.408 320.512-319.488 0-175.104-145.408-320.512-320.512-320.512s-319.488 145.408-319.488 320.512c0 174.080 144.384 319.488 319.488 319.488zM512 820.992c-153.6 0-277.504-122.88-277.504-276.48s123.904-277.504 277.504-277.504c153.6 0 277.504 123.904 277.504 277.504s-123.904 276.48-277.504 276.48zM512 736c8.192 0 17.408-4.096 17.408-12.288l47.104-90.112 102.4-12.288c8.192 0 12.288-9.216 16.384-13.312 4.096-8.192 0-17.408-4.096-21.504l-72.704-72.704 17.408-102.4c0-8.192 0-16.384-8.192-20.48-9.216-5.12-17.408-5.12-21.504 0l-94.208 41.984-89.088-47.104c-9.216-4.096-17.408-4.096-21.504 0-9.216 5.12-9.216 13.312-9.216 21.504l17.408 102.4-76.8 72.704c-4.096 4.096-4.096 13.312-4.096 21.504 4.096 8.192 8.192 12.288 17.408 12.288l102.4 13.312 46.080 89.088c0 13.312 9.216 17.408 17.408 17.408zM512 667.392l-29.696-63.488c-4.096-4.096-8.192-8.192-17.408-13.312l-67.584-8.192 51.2-47.104c4.096-4.096 8.192-12.288 4.096-16.384l-13.312-68.608 64.512 33.792c4.096 4.096 12.288 4.096 21.504 0l63.488-33.792-12.288 68.608c0 8.192 0 12.288 4.096 16.384l51.2 47.104-68.608 8.192c-8.192 0-12.288 5.12-17.408 13.312l-33.792 63.488z" />
<glyph unicode="&#xe835;" glyph-name="image-before-after" d="M234.496 395.008c59.392 0 106.496 47.104 106.496 106.496s-47.104 106.496-106.496 106.496-106.496-48.128-106.496-106.496 48.128-106.496 106.496-106.496zM234.496 564.992c35.84 0 64.512-28.672 64.512-63.488s-28.672-64.512-64.512-64.512-63.488 28.672-63.488 64.512 28.672 63.488 63.488 63.488zM1002.496 736h-490.496v84.992h21.504c11.264 0 21.504 10.24 21.504 21.504s-10.24 21.504-21.504 21.504h-84.992c-12.288 0-21.504-9.216-21.504-21.504s9.216-21.504 21.504-21.504h20.48v-84.992h-447.488c-12.288 0-21.504-9.216-21.504-21.504v-724.992c0-12.288 9.216-21.504 21.504-21.504h447.488v-84.992h-20.48c-12.288 0-21.504-10.24-21.504-21.504s9.216-21.504 21.504-21.504h84.992c11.264 0 21.504 9.216 21.504 21.504s-10.24 21.504-21.504 21.504h-21.504v84.992h490.496c12.288 0 21.504 9.216 21.504 21.504v724.992c0 12.288-9.216 21.504-21.504 21.504zM468.992 692.992v-291.84l-130.048-205.824-131.072 149.504c-4.096 5.12-11.264 7.168-18.432 7.168-6.144-1.024-12.288-5.12-16.384-10.24l-130.048-229.376v580.608h425.984zM43.008 11.008v15.36l152.576 268.288 130.048-148.48c4.096-5.12 11.264-8.192 17.408-7.168 7.168 0 12.288 4.096 16.384 9.216l109.568 173.056v-310.272h-425.984zM980.992 11.008h-468.992v681.984h468.992v-681.984z" />
<glyph unicode="&#xe836;" glyph-name="image-box" d="M896 842.496c0 12.288-9.216 21.504-21.504 21.504h-724.992c-12.288 0-21.504-9.216-21.504-21.504v-468.992c0-3.072 1.024-5.12 2.048-8.192 0-1.024 0-1.024 0-1.024 1.024-2.048 2.048-4.096 4.096-6.144 4.096-4.096 10.24-6.144 15.36-6.144v0h724.992c5.12 0 9.216 2.048 12.288 4.096 0 0 1.024 0 1.024 1.024 0 0 1.024 0 1.024 0 1.024 1.024 2.048 3.072 3.072 4.096s1.024 2.048 2.048 3.072c0 1.024 1.024 2.048 1.024 4.096 0 1.024 1.024 2.048 1.024 4.096 0 0 0 0 0 1.024v468.992zM852.992 820.992v-386.048l-196.608 249.856c-3.072 5.12-9.216 8.192-15.36 8.192-7.168 1.024-12.288-2.048-16.384-7.168l-158.72-176.128-112.64 71.68c-9.216 5.12-19.456 4.096-26.624-3.072l-155.648-153.6v396.288h681.984zM830.464 395.008h-628.736l142.336 141.312 113.664-72.704c9.216-5.12 20.48-4.096 27.648 4.096l153.6 171.008 191.488-243.712zM789.504 267.008h-555.008c-11.264 0-21.504-10.24-21.504-21.504s10.24-21.504 21.504-21.504h555.008c11.264 0 21.504 9.216 21.504 21.504s-10.24 21.504-21.504 21.504zM789.504 139.008h-555.008c-11.264 0-21.504-10.24-21.504-21.504s10.24-21.504 21.504-21.504h555.008c11.264 0 21.504 9.216 21.504 21.504s-10.24 21.504-21.504 21.504zM789.504 11.008h-555.008c-11.264 0-21.504-10.24-21.504-21.504s10.24-21.504 21.504-21.504h555.008c11.264 0 21.504 9.216 21.504 21.504s-10.24 21.504-21.504 21.504zM789.504-116.992h-555.008c-11.264 0-21.504-10.24-21.504-21.504s10.24-21.504 21.504-21.504h555.008c11.264 0 21.504 9.216 21.504 21.504s-10.24 21.504-21.504 21.504zM340.992 608c47.104 0 86.016 37.888 86.016 84.992s-38.912 86.016-86.016 86.016-84.992-38.912-84.992-86.016 37.888-84.992 84.992-84.992zM340.992 736c23.552 0 43.008-19.456 43.008-43.008s-19.456-41.984-43.008-41.984-41.984 18.432-41.984 41.984 18.432 43.008 41.984 43.008z" />
<glyph unicode="&#xe838;" glyph-name="image-rollover" d="M128 629.504c0-59.392 48.128-106.496 106.496-106.496s106.496 47.104 106.496 106.496-47.104 106.496-106.496 106.496-106.496-48.128-106.496-106.496zM299.008 629.504c0-35.84-28.672-64.512-64.512-64.512s-63.488 28.672-63.488 64.512 28.672 63.488 63.488 63.488 64.512-28.672 64.512-63.488zM1002.496 864h-980.992c-12.288 0-21.504-9.216-21.504-21.504v-724.992c0-12.288 9.216-21.504 21.504-21.504h468.992c12.288 0 21.504 9.216 21.504 21.504s-9.216 21.504-21.504 21.504h-447.488v15.36l152.576 268.288 130.048-148.48c4.096-5.12 11.264-8.192 17.408-7.168 7.168 0 13.312 4.096 16.384 10.24l106.496 169.984c6.144 10.24 3.072 23.552-6.144 29.696-10.24 6.144-23.552 3.072-29.696-7.168l-91.136-146.432-131.072 149.504c-4.096 5.12-11.264 8.192-18.432 7.168-6.144-1.024-12.288-5.12-16.384-10.24l-130.048-229.376v580.608h937.984v-575.488c0-12.288 10.24-21.504 21.504-21.504s21.504 9.216 21.504 21.504v596.992c0 12.288-9.216 21.504-21.504 21.504zM590.848 558.848c-6.144 6.144-15.36 8.192-22.528 5.12-8.192-3.072-13.312-11.264-13.312-19.456v-591.872c0-7.168 4.096-15.36 11.264-18.432 8.192-4.096 16.384-3.072 22.528 2.048l108.544 84.992 94.208-169.984c4.096-7.168 11.264-11.264 19.456-11.264 3.072 0 6.144 1.024 9.216 2.048l128 64.512c5.12 2.048 9.216 7.168 11.264 12.288 1.024 6.144 1.024 11.264-2.048 16.384l-89.088 160.768h134.144c9.216 0 16.384 5.12 19.456 13.312 4.096 8.192 2.048 17.408-4.096 23.552l-427.008 425.984zM832.512 139.008c-8.192 0-15.36-4.096-18.432-11.264-4.096-6.144-4.096-14.336-1.024-20.48l96.256-173.056-90.112-45.056-96.256 174.080c-3.072 6.144-8.192 10.24-14.336 11.264-2.048 0-3.072 0-4.096 0-5.12 0-10.24-1.024-13.312-4.096l-94.208-73.728v495.616l354.304-353.28h-118.784z" />
<glyph unicode="&#xe839;" glyph-name="info-box" d="M874.496 864h-724.992c-12.288 0-21.504-9.216-21.504-21.504v-468.992c0 0 0 0 0 0v-512c0-12.288 9.216-21.504 21.504-21.504h724.992c12.288 0 21.504 9.216 21.504 21.504v980.992c0 12.288-9.216 21.504-21.504 21.504zM852.992 820.992v-386.048l-196.608 249.856c-3.072 5.12-9.216 8.192-15.36 8.192-6.144 1.024-12.288-2.048-16.384-7.168l-158.72-176.128-112.64 71.68c-9.216 5.12-19.456 4.096-26.624-3.072l-155.648-153.6v396.288h681.984zM830.464 395.008h-628.736l142.336 141.312 113.664-72.704c9.216-5.12 20.48-4.096 27.648 4.096l153.6 171.008 191.488-243.712zM171.008-116.992v468.992h681.984v-468.992h-681.984zM746.496 267.008h-468.992c-12.288 0-21.504-10.24-21.504-21.504s9.216-21.504 21.504-21.504h468.992c12.288 0 21.504 9.216 21.504 21.504s-9.216 21.504-21.504 21.504zM661.504 96h-299.008c-11.264 0-21.504-9.216-21.504-21.504v-84.992c0-12.288 10.24-21.504 21.504-21.504h299.008c11.264 0 21.504 9.216 21.504 21.504v84.992c0 12.288-10.24 21.504-21.504 21.504zM640 11.008h-256v41.984h256v-41.984zM340.992 608c47.104 0 86.016 37.888 86.016 84.992s-38.912 86.016-86.016 86.016-84.992-38.912-84.992-86.016 37.888-84.992 84.992-84.992zM340.992 736c23.552 0 43.008-19.456 43.008-43.008s-19.456-41.984-43.008-41.984-41.984 18.432-41.984 41.984 18.432 43.008 41.984 43.008z" />
<glyph unicode="&#xe83a;" glyph-name="inner-section" d="M1002.496 864h-980.992c-12.288 0-21.504-9.216-21.504-21.504v-980.992c0-12.288 9.216-21.504 21.504-21.504h980.992c12.288 0 21.504 9.216 21.504 21.504v980.992c0 12.288-9.216 21.504-21.504 21.504zM468.992 352h512v-212.992h-512v212.992zM980.992 395.008h-256v425.984h256v-425.984zM683.008 820.992v-425.984h-640v425.984h640zM43.008 352h384v-468.992h-384v468.992zM468.992-116.992v212.992h512v-212.992h-512z" />
<glyph unicode="&#xe83b;" glyph-name="mailchimp" d="M939.008 172.8v21.504c8.192 10.24 21.504 28.672 21.504 51.2 0 31.744-64.512 98.304-107.52 120.832v92.16c0 35.84-18.432 81.92-43.008 117.76 22.528 19.456 86.016 81.92 86.016 138.24 0 89.088-65.536 106.496-171.008 106.496-25.6 0-58.368-7.168-96.256-20.48-16.384 20.48-55.296 63.488-95.232 63.488-47.104 0-202.752-45.056-314.368-155.648-107.52-107.52-176.128-244.736-176.128-291.84 0-35.84 35.84-71.68 57.344-91.136-9.216-17.408-15.36-36.864-15.36-58.368 0-72.704 61.44-132.096 134.144-128 58.368-179.2 204.8-299.008 367.616-299.008 98.304 0 192.512 45.056 264.192 120.832 1.024 2.048 3.072 3.072 4.096 5.12 25.6 27.648 48.128 60.416 67.584 96.256 21.504 7.168 58.368 23.552 58.368 55.296 0 26.624-25.6 46.080-41.984 55.296zM917.504 245.504c0-9.216-7.168-18.432-12.288-23.552-24.576-8.192-138.24-40.96-200.704-40.96-12.288 0-23.552 1.024-33.792 1.024-47.104 1.024-81.92 1.024-101.376-18.432-10.24-9.216-14.336-21.504-14.336-39.936-1.024-15.36-1.024-38.912 19.456-59.392 22.528-23.552 64.512-33.792 131.072-33.792 70.656 0 122.88 7.168 157.696 14.336-12.288-17.408-25.6-33.792-38.912-49.152-16.384-7.168-75.776-27.648-162.816-27.648-94.208 0-171.008 93.184-171.008 171.008 0 65.536 82.944 103.424 92.16 107.52 28.672 2.048 67.584 18.432 111.616 38.912 47.104 20.48 99.328 44.032 135.168 45.056 27.648-10.24 83.968-69.632 88.064-84.992zM811.008 458.496v-88.064c-8.192-1.024-15.36-2.048-22.528-4.096 0 2.048 1.024 5.12 1.024 7.168v21.504c0 11.264-9.216 21.504-21.504 21.504s-21.504-10.24-21.504-21.504v-21.504c0-7.168 4.096-13.312 9.216-16.384-25.6-9.216-52.224-21.504-78.848-32.768-9.216-4.096-18.432-9.216-27.648-12.288 7.168 3.072 12.288 10.24 12.288 18.432v21.504c0 12.288-9.216 21.504-21.504 21.504s-21.504-9.216-21.504-21.504v-21.504c0-11.264 10.24-21.504 21.504-21.504 3.072 0 5.12 1.024 7.168 2.048-27.648-12.288-52.224-21.504-68.608-22.528-17.408 7.168-88.064 36.864-88.064 84.992 0 31.744 8.192 84.992 64.512 84.992 23.552 0 47.104-5.12 69.632-11.264 19.456-5.12 38.912-10.24 58.368-10.24 27.648 0 53.248 18.432 70.656 31.744 6.144 5.12 14.336 10.24 14.336 11.264h6.144c9.216 0 25.6 1.024 31.744-5.12 3.072-3.072 5.12-8.192 5.12-16.384zM852.992 714.496c0-31.744-40.96-78.848-70.656-105.472-9.216 8.192-18.432 15.36-27.648 18.432-44.032 19.456-276.48 96.256-495.616-241.664-10.24 4.096-21.504 6.144-32.768 8.192 121.856 235.52 391.168 385.024 498.688 385.024 128 0 128-31.744 128-64.512zM84.992 416.512c0 27.648 58.368 154.624 164.864 262.144 99.328 98.304 244.736 142.336 283.648 142.336 14.336 0 36.864-18.432 53.248-36.864-140.288-63.488-320.512-201.728-410.624-395.264-19.456-6.144-35.84-15.36-50.176-28.672-19.456 17.408-40.96 41.984-40.96 56.32zM261.12 148.224c5.12 2.048 11.264 5.12 16.384 8.192 10.24 6.144 13.312 19.456 8.192 28.672-6.144 10.24-19.456 14.336-29.696 8.192-13.312-8.192-27.648-12.288-43.008-12.288-47.104 0-84.992 38.912-84.992 86.016s37.888 84.992 84.992 84.992c15.36 0 29.696-4.096 43.008-12.288 10.24-5.12 22.528-2.048 28.672 7.168 204.8 327.68 413.696 259.072 453.632 241.664 16.384-7.168 37.888-34.816 53.248-66.56-7.168 1.024-13.312 1.024-18.432 1.024h-5.12c-13.312 0-24.576-9.216-39.936-19.456-13.312-10.24-30.72-23.552-45.056-23.552s-30.72 4.096-48.128 9.216c-23.552 5.12-50.176 12.288-79.872 12.288-52.224 0-106.496-33.792-106.496-128 0-53.248 45.056-89.088 79.872-108.544-34.816-22.528-79.872-64.512-79.872-125.952 0-99.328 93.184-214.016 212.992-214.016 33.792 0 62.464 3.072 88.064 7.168-50.176-31.744-105.472-49.152-162.816-49.152-143.36 0-272.384 105.472-325.632 265.216zM902.144 101.12c0 0-1.024-1.024-1.024-1.024-1.024 0-1.024 0-2.048 0-1.024-1.024-63.488-27.648-193.536-27.648-66.56 0-91.136 12.288-101.376 21.504-6.144 7.168-7.168 15.36-7.168 28.672 0 0 0 4.096 0 4.096 0 3.072 1.024 5.12 2.048 6.144 7.168 7.168 40.96 7.168 70.656 6.144 11.264 0 22.528 0 34.816 0 56.32 0 146.432 22.528 191.488 34.816v-13.312c0-9.216 5.12-16.384 13.312-20.48 15.36-6.144 28.672-18.432 29.696-20.48-3.072-5.12-20.48-14.336-36.864-18.432z" />
<glyph unicode="&#xe83e;" glyph-name="nav-menu" d="M980.992 692.992h-937.984c-12.288 0-21.504-9.216-21.504-20.48v-128c0-12.288 9.216-21.504 21.504-21.504h277.504v-490.496c0-12.288 9.216-21.504 20.48-21.504h427.008c12.288 0 21.504 9.216 21.504 21.504v490.496h191.488c12.288 0 21.504 9.216 21.504 21.504v128c0 11.264-9.216 20.48-21.504 20.48zM661.504 564.992h-299.008v86.016h299.008v-86.016zM64.512 651.008h256v-86.016h-256v86.016zM746.496 52.992h-384v470.016h384v-470.016zM960.512 564.992h-256v86.016h256v-86.016zM427.008 436.992c-12.288 0-21.504-9.216-21.504-20.48s9.216-21.504 21.504-21.504h256c11.264 0 21.504 9.216 21.504 21.504s-10.24 20.48-21.504 20.48h-256zM683.008 308.992h-256c-12.288 0-21.504-9.216-21.504-20.48s9.216-21.504 21.504-21.504h256c11.264 0 21.504 9.216 21.504 21.504s-10.24 20.48-21.504 20.48zM683.008 180.992h-256c-12.288 0-21.504-9.216-21.504-20.48s9.216-21.504 21.504-21.504h256c11.264 0 21.504 9.216 21.504 21.504s-10.24 20.48-21.504 20.48z" />
<glyph unicode="&#xe840;" glyph-name="number-field" d="M960.512 672.512h-896c-35.84 0-64.512-28.672-64.512-64.512v-512c0-34.816 28.672-63.488 64.512-63.488h896c34.816 0 63.488 28.672 63.488 63.488v512c0 35.84-28.672 64.512-63.488 64.512zM980.992 96c0-11.264-9.216-21.504-20.48-21.504h-896c-12.288 0-21.504 10.24-21.504 21.504v512c0 12.288 9.216 21.504 21.504 21.504h896c11.264 0 20.48-9.216 20.48-21.504v-512zM240.64 543.488c-8.192 2.048-18.432-1.024-23.552-9.216l-84.992-128c-7.168-9.216-4.096-22.528 5.12-29.696 10.24-6.144 23.552-3.072 29.696 6.144l46.080 69.632v-271.36c0-11.264 10.24-20.48 21.504-20.48s21.504 9.216 21.504 20.48v342.016c0 9.216-6.144 17.408-15.36 20.48zM448.512 544.512c-59.392 0-107.52-48.128-107.52-107.52 0-11.264 10.24-20.48 21.504-20.48s21.504 9.216 21.504 20.48c0 35.84 28.672 64.512 64.512 64.512s63.488-28.672 63.488-64.512v-12.288c0-14.336-5.12-28.672-14.336-39.936l-151.552-190.464c-5.12-6.144-6.144-14.336-3.072-22.528 4.096-7.168 11.264-11.264 19.456-11.264h171.008c11.264 0 21.504 9.216 21.504 20.48s-10.24 21.504-21.504 21.504h-125.952l123.904 155.648c15.36 18.432 23.552 41.984 23.552 66.56v12.288c0 59.392-48.128 107.52-106.496 107.52zM852.992 436.992c0 59.392-47.104 107.52-106.496 107.52s-106.496-48.128-106.496-107.52c0-11.264 9.216-20.48 21.504-20.48s21.504 9.216 21.504 20.48c0 35.84 28.672 64.512 63.488 64.512s64.512-28.672 64.512-64.512-28.672-63.488-64.512-63.488c-11.264 0-21.504-9.216-21.504-21.504s10.24-21.504 21.504-21.504c35.84 0 64.512-28.672 64.512-63.488s-28.672-64.512-64.512-64.512-63.488 28.672-63.488 64.512c0 11.264-10.24 21.504-21.504 21.504s-21.504-10.24-21.504-21.504c0-59.392 48.128-106.496 106.496-106.496s106.496 47.104 106.496 106.496c0 34.816-16.384 65.536-41.984 84.992 25.6 19.456 41.984 50.176 41.984 84.992z" />
<glyph unicode="&#xe843;" glyph-name="post-list" d="M277.504 842.496h-256c-12.288 0-21.504-9.216-21.504-21.504v-256c0-11.264 9.216-20.48 21.504-20.48h256c11.264 0 21.504 9.216 21.504 20.48v256c0 12.288-10.24 21.504-21.504 21.504zM256 586.496h-212.992v214.016h212.992v-214.016zM405.504 672.512h596.992c12.288 0 21.504 9.216 21.504 20.48s-9.216 21.504-21.504 21.504h-596.992c-12.288 0-21.504-9.216-21.504-21.504s9.216-20.48 21.504-20.48zM405.504 757.504h256c11.264 0 21.504 9.216 21.504 21.504s-10.24 21.504-21.504 21.504h-256c-12.288 0-21.504-10.24-21.504-21.504s9.216-21.504 21.504-21.504zM1002.496 629.504h-596.992c-12.288 0-21.504-9.216-21.504-21.504s9.216-21.504 21.504-21.504h596.992c12.288 0 21.504 10.24 21.504 21.504s-9.216 21.504-21.504 21.504zM277.504 501.504h-256c-12.288 0-21.504-9.216-21.504-21.504v-256c0-11.264 9.216-21.504 21.504-21.504h256c11.264 0 21.504 10.24 21.504 21.504v256c0 12.288-10.24 21.504-21.504 21.504zM256 245.504h-212.992v212.992h212.992v-212.992zM1002.496 373.504h-596.992c-12.288 0-21.504-9.216-21.504-21.504s9.216-21.504 21.504-21.504h596.992c12.288 0 21.504 10.24 21.504 21.504s-9.216 21.504-21.504 21.504zM405.504 416.512h256c11.264 0 21.504 9.216 21.504 20.48s-10.24 21.504-21.504 21.504h-256c-12.288 0-21.504-9.216-21.504-21.504s9.216-20.48 21.504-20.48zM1002.496 288.512h-596.992c-12.288 0-21.504-10.24-21.504-21.504s9.216-21.504 21.504-21.504h596.992c12.288 0 21.504 9.216 21.504 21.504s-9.216 21.504-21.504 21.504zM277.504 160.512h-256c-12.288 0-21.504-10.24-21.504-21.504v-256c0-12.288 9.216-21.504 21.504-21.504h256c11.264 0 21.504 9.216 21.504 21.504v256c0 11.264-10.24 21.504-21.504 21.504zM256-96.512h-212.992v214.016h212.992v-214.016zM1002.496 32.512h-596.992c-12.288 0-21.504-10.24-21.504-21.504s9.216-21.504 21.504-21.504h596.992c12.288 0 21.504 9.216 21.504 21.504s-9.216 21.504-21.504 21.504zM405.504 74.496h256c11.264 0 21.504 10.24 21.504 21.504s-10.24 21.504-21.504 21.504h-256c-12.288 0-21.504-9.216-21.504-21.504s9.216-21.504 21.504-21.504zM1002.496-53.504h-596.992c-12.288 0-21.504-9.216-21.504-21.504s9.216-21.504 21.504-21.504h596.992c12.288 0 21.504 10.24 21.504 21.504s-9.216 21.504-21.504 21.504z" />
<glyph unicode="&#xe848;" glyph-name="posts-group" d="M1002.496 779.008h-256c-11.264 0-21.504-10.24-21.504-21.504v-256c0-12.288 10.24-21.504 21.504-21.504h256c12.288 0 21.504 9.216 21.504 21.504v256c0 11.264-9.216 21.504-21.504 21.504zM980.992 523.008h-212.992v212.992h212.992v-212.992zM960.512 395.008c11.264 0 20.48 9.216 20.48 21.504s-9.216 20.48-20.48 20.48h-171.008c-12.288 0-21.504-9.216-21.504-20.48s9.216-21.504 21.504-21.504h171.008zM1002.496 308.992h-256c-11.264 0-21.504-9.216-21.504-20.48v-256c0-12.288 10.24-21.504 21.504-21.504h256c12.288 0 21.504 9.216 21.504 21.504v256c0 11.264-9.216 20.48-21.504 20.48zM980.992 52.992h-212.992v214.016h212.992v-214.016zM960.512-32h-171.008c-12.288 0-21.504-9.216-21.504-21.504s9.216-21.504 21.504-21.504h171.008c11.264 0 20.48 10.24 20.48 21.504s-9.216 21.504-20.48 21.504zM661.504 779.008h-640c-12.288 0-21.504-10.24-21.504-21.504v-811.008c0-11.264 9.216-21.504 21.504-21.504h640c11.264 0 21.504 10.24 21.504 21.504v811.008c0 11.264-10.24 21.504-21.504 21.504zM640-32h-596.992v768h596.992v-768zM149.504 52.992h256c11.264 0 21.504 10.24 21.504 21.504s-10.24 21.504-21.504 21.504h-256c-12.288 0-21.504-9.216-21.504-21.504s9.216-21.504 21.504-21.504zM149.504 180.992h384c11.264 0 21.504 10.24 21.504 21.504s-10.24 21.504-21.504 21.504h-384c-12.288 0-21.504-9.216-21.504-21.504s9.216-21.504 21.504-21.504zM149.504 308.992h384c11.264 0 21.504 10.24 21.504 21.504s-10.24 21.504-21.504 21.504h-384c-12.288 0-21.504-9.216-21.504-21.504s9.216-21.504 21.504-21.504z" />
<glyph unicode="&#xe849;" glyph-name="posts-justified" d="M21.504 608h212.992c12.288 0 21.504 9.216 21.504 21.504v212.992c0 12.288-9.216 21.504-21.504 21.504h-212.992c-12.288 0-21.504-9.216-21.504-21.504v-212.992c0-12.288 9.216-21.504 21.504-21.504zM43.008 820.992h169.984v-169.984h-169.984v169.984zM320.512 608h384c11.264 0 20.48 9.216 20.48 21.504v212.992c0 12.288-9.216 21.504-20.48 21.504h-384c-12.288 0-21.504-9.216-21.504-21.504v-212.992c0-12.288 9.216-21.504 21.504-21.504zM340.992 820.992h342.016v-169.984h-342.016v169.984zM1002.496 864h-212.992c-12.288 0-21.504-9.216-21.504-21.504v-212.992c0-12.288 9.216-21.504 21.504-21.504h212.992c12.288 0 21.504 9.216 21.504 21.504v212.992c0 12.288-9.216 21.504-21.504 21.504zM980.992 651.008h-169.984v169.984h169.984v-169.984zM64.512 564.992c-12.288 0-21.504-9.216-21.504-20.48s9.216-21.504 21.504-21.504h128c11.264 0 20.48 9.216 20.48 21.504s-9.216 20.48-20.48 20.48h-128zM596.992 544.512c0 11.264-9.216 20.48-20.48 20.48h-128c-12.288 0-21.504-9.216-21.504-20.48s9.216-21.504 21.504-21.504h128c11.264 0 20.48 9.216 20.48 21.504zM960.512 523.008c11.264 0 20.48 9.216 20.48 21.504s-9.216 20.48-20.48 20.48h-128c-12.288 0-21.504-9.216-21.504-20.48s9.216-21.504 21.504-21.504h128zM490.496 224h214.016c11.264 0 20.48 9.216 20.48 21.504v212.992c0 12.288-9.216 21.504-20.48 21.504h-214.016c-11.264 0-21.504-9.216-21.504-21.504v-212.992c0-12.288 10.24-21.504 21.504-21.504zM512 436.992h171.008v-169.984h-171.008v169.984zM21.504 224h384c11.264 0 21.504 9.216 21.504 21.504v212.992c0 12.288-10.24 21.504-21.504 21.504h-384c-12.288 0-21.504-9.216-21.504-21.504v-212.992c0-12.288 9.216-21.504 21.504-21.504zM43.008 436.992h340.992v-169.984h-340.992v169.984zM1002.496 480h-212.992c-12.288 0-21.504-9.216-21.504-21.504v-212.992c0-12.288 9.216-21.504 21.504-21.504h212.992c12.288 0 21.504 9.216 21.504 21.504v212.992c0 12.288-9.216 21.504-21.504 21.504zM980.992 267.008h-169.984v169.984h169.984v-169.984zM661.504 180.992h-128c-12.288 0-21.504-9.216-21.504-20.48s9.216-21.504 21.504-21.504h128c11.264 0 21.504 9.216 21.504 21.504s-10.24 20.48-21.504 20.48zM149.504 180.992c-12.288 0-21.504-9.216-21.504-20.48s9.216-21.504 21.504-21.504h128c11.264 0 21.504 9.216 21.504 21.504s-10.24 20.48-21.504 20.48h-128zM960.512 139.008c11.264 0 20.48 9.216 20.48 21.504s-9.216 20.48-20.48 20.48h-128c-12.288 0-21.504-9.216-21.504-20.48s9.216-21.504 21.504-21.504h128zM192.512 96h-171.008c-12.288 0-21.504-9.216-21.504-21.504v-212.992c0-12.288 9.216-21.504 21.504-21.504h171.008c11.264 0 20.48 9.216 20.48 21.504v212.992c0 12.288-9.216 21.504-20.48 21.504zM171.008-116.992h-128v169.984h128v-169.984zM618.496 96h-340.992c-12.288 0-21.504-9.216-21.504-21.504v-212.992c0-12.288 9.216-21.504 21.504-21.504h340.992c12.288 0 21.504 9.216 21.504 21.504v212.992c0 12.288-9.216 21.504-21.504 21.504zM596.992-116.992h-297.984v169.984h297.984v-169.984zM1002.496 96h-297.984c-12.288 0-21.504-9.216-21.504-21.504v-212.992c0-12.288 9.216-21.504 21.504-21.504h297.984c12.288 0 21.504 9.216 21.504 21.504v212.992c0 12.288-9.216 21.504-21.504 21.504zM980.992-116.992h-256v169.984h256v-169.984z" />
<glyph unicode="&#xe84a;" glyph-name="posts-masonry" d="M299.008 864h-256c-12.288 0-21.504-9.216-21.504-21.504v-256c0-11.264 9.216-21.504 21.504-21.504h256c11.264 0 21.504 10.24 21.504 21.504v256c0 12.288-10.24 21.504-21.504 21.504zM277.504 608h-212.992v212.992h212.992v-212.992zM256 480c12.288 0 21.504 9.216 21.504 21.504s-9.216 21.504-21.504 21.504h-171.008c-11.264 0-20.48-10.24-20.48-21.504s9.216-21.504 20.48-21.504h171.008zM640 864h-256c-11.264 0-21.504-9.216-21.504-21.504v-425.984c0-12.288 10.24-21.504 21.504-21.504h256c12.288 0 21.504 9.216 21.504 21.504v425.984c0 12.288-9.216 21.504-21.504 21.504zM618.496 436.992h-212.992v384h212.992v-384zM596.992 308.992c12.288 0 21.504 10.24 21.504 21.504s-9.216 21.504-21.504 21.504h-169.984c-12.288 0-21.504-9.216-21.504-21.504s9.216-21.504 21.504-21.504h169.984zM980.992 864h-256c-11.264 0-20.48-9.216-20.48-21.504v-340.992c0-12.288 9.216-21.504 20.48-21.504h256c12.288 0 21.504 9.216 21.504 21.504v340.992c0 12.288-9.216 21.504-21.504 21.504zM960.512 523.008h-214.016v297.984h214.016v-297.984zM939.008 395.008c11.264 0 21.504 9.216 21.504 21.504s-10.24 20.48-21.504 20.48h-171.008c-11.264 0-21.504-9.216-21.504-20.48s10.24-21.504 21.504-21.504h171.008zM299.008 395.008h-256c-12.288 0-21.504-10.24-21.504-21.504v-256c0-12.288 9.216-21.504 21.504-21.504h256c11.264 0 21.504 9.216 21.504 21.504v256c0 11.264-10.24 21.504-21.504 21.504zM277.504 139.008h-212.992v212.992h212.992v-212.992zM256 52.992h-171.008c-11.264 0-20.48-9.216-20.48-20.48s9.216-21.504 20.48-21.504h171.008c12.288 0 21.504 9.216 21.504 21.504s-9.216 20.48-21.504 20.48zM640 224h-256c-11.264 0-21.504-9.216-21.504-21.504v-256c0-11.264 10.24-21.504 21.504-21.504h256c12.288 0 21.504 10.24 21.504 21.504v256c0 12.288-9.216 21.504-21.504 21.504zM618.496-32h-212.992v212.992h212.992v-212.992zM596.992-116.992h-169.984c-12.288 0-21.504-10.24-21.504-21.504s9.216-21.504 21.504-21.504h169.984c12.288 0 21.504 9.216 21.504 21.504s-9.216 21.504-21.504 21.504zM980.992 308.992h-256c-11.264 0-20.48-9.216-20.48-20.48v-256c0-12.288 9.216-21.504 20.48-21.504h256c12.288 0 21.504 9.216 21.504 21.504v256c0 11.264-9.216 20.48-21.504 20.48zM960.512 52.992h-214.016v214.016h214.016v-214.016zM939.008-32h-171.008c-11.264 0-21.504-9.216-21.504-21.504s10.24-21.504 21.504-21.504h171.008c11.264 0 21.504 10.24 21.504 21.504s-10.24 21.504-21.504 21.504z" />
<glyph unicode="&#xe84b;" glyph-name="posts-ticker" d="M482.304 800.512c-41.984 0-76.8-18.432-99.328-52.224-2.048-3.072-4.096-7.168-6.144-10.24-1.024-1.024-2.048-2.048-2.048-3.072l-5.12-9.216c0-1.024 0-2.048-1.024-3.072l-129.024-270.336-175.104-111.616c-40.96-25.6-64.512-69.632-64.512-116.736v-7.168c0-43.008 19.456-81.92 52.224-108.544 24.576-20.48 55.296-29.696 86.016-29.696 21.504 0 41.984 5.12 61.44 14.336l84.992-15.36 40.96-82.944c14.336-28.672 39.936-49.152 70.656-58.368l109.568-31.744c2.048 0 4.096-1.024 6.144-1.024 4.096 0 8.192 1.024 11.264 3.072 5.12 4.096 8.192 8.192 9.216 14.336l4.096 20.48c11.264 56.32-19.456 110.592-72.704 129.024l-47.104 128 272.384-36.864c1.024 0 1.024 0 2.048 0l10.24-1.024c1.024 0 3.072 0 4.096 0 2.048 0 4.096 0 6.144 0 43.008 0 76.8 17.408 100.352 51.2 41.984 60.416 39.936 163.84-3.072 276.48-66.56 175.104-209.92 312.32-326.656 312.32zM78.848 142.080c-22.528 17.408-35.84 45.056-35.84 74.752v7.168c0 32.768 16.384 62.464 44.032 80.896l148.48 94.208c5.12-68.608 25.6-139.264 100.352-178.176l-149.504-87.040c-33.792-19.456-76.8-16.384-107.52 8.192zM443.392 32.512c35.84-9.216 58.368-44.032 52.224-79.872l-88.064 24.576c-19.456 5.12-34.816 18.432-44.032 36.864l-46.080 91.136c-3.072 6.144-8.192 10.24-14.336 12.288l-45.056 8.192 114.688 67.584 55.296-147.456c2.048-6.144 8.192-11.264 15.36-13.312zM389.12 244.48c-96.256 28.672-111.616 106.496-111.616 188.416l76.8 160.768c4.096-37.888 14.336-78.848 30.72-120.832 39.936-104.448 107.52-194.56 179.2-250.88l-175.104 22.528zM777.216 236.288c-15.36-22.528-36.864-33.792-65.536-33.792-5.12 0-10.24 1.024-16.384 2.048h-3.072c-93.184 15.36-211.968 139.264-267.264 283.648-32.768 84.992-38.912 164.864-17.408 216.064v1.024c3.072 7.168 6.144 13.312 10.24 19.456 15.36 21.504 36.864 32.768 64.512 32.768 96.256 0 227.328-131.072 286.72-284.672 37.888-98.304 40.96-188.416 8.192-236.544zM585.728 582.4c-32.768 9.216-67.584 4.096-97.28-14.336-9.216-6.144-13.312-18.432-7.168-28.672s19.456-13.312 29.696-7.168c19.456 11.264 41.984 14.336 64.512 9.216s40.96-19.456 52.224-38.912c12.288-19.456 15.36-41.984 10.24-64.512-6.144-22.528-19.456-40.96-38.912-52.224-10.24-6.144-13.312-19.456-8.192-29.696 4.096-6.144 11.264-10.24 18.432-10.24 4.096 0 8.192 1.024 11.264 3.072 29.696 17.408 50.176 45.056 58.368 78.848 8.192 32.768 3.072 67.584-14.336 96.256-17.408 29.696-46.080 50.176-78.848 58.368zM812.032 579.328c3.072-8.192 11.264-14.336 20.48-14.336 2.048 0 4.096 1.024 7.168 2.048l171.008 63.488c10.24 4.096 16.384 16.384 12.288 27.648s-16.384 16.384-27.648 12.288l-171.008-63.488c-11.264-4.096-16.384-16.384-12.288-27.648zM789.504 672.512c5.12 0 11.264 2.048 15.36 6.144l84.992 84.992c8.192 8.192 8.192 21.504 0 29.696s-21.504 9.216-30.72 0l-84.992-84.992c-8.192-8.192-8.192-21.504 0-29.696 4.096-4.096 10.24-6.144 15.36-6.144zM1002.496 501.504h-128c-11.264 0-21.504-9.216-21.504-21.504s10.24-21.504 21.504-21.504h128c12.288 0 21.504 10.24 21.504 21.504s-9.216 21.504-21.504 21.504z" />
<glyph unicode="&#xe84d;" glyph-name="price-table" d="M980.992 672.512h-191.488v63.488c0 12.288-9.216 21.504-21.504 21.504h-512c-11.264 0-21.504-9.216-21.504-21.504v-63.488h-191.488c-12.288 0-21.504-10.24-21.504-21.504v-598.016c0-11.264 9.216-20.48 21.504-20.48h191.488v-64.512c0-12.288 10.24-21.504 21.504-21.504h512c12.288 0 21.504 9.216 21.504 21.504v64.512h191.488c12.288 0 21.504 9.216 21.504 20.48v598.016c0 11.264-9.216 21.504-21.504 21.504zM960.512 629.504v-84.992h-171.008v84.992h171.008zM277.504 714.496h468.992v-128h-468.992v128zM234.496 629.504v-84.992h-169.984v84.992h169.984zM64.512 74.496v427.008h169.984v-427.008h-169.984zM746.496-10.496h-468.992v555.008h468.992v-555.008zM789.504 74.496v427.008h171.008v-427.008h-171.008zM533.504 283.392v87.040c23.552-5.12 40.96-20.48 43.008-37.888 1.024-11.264 11.264-19.456 22.528-19.456 12.288 1.024 20.48 12.288 19.456 23.552-3.072 39.936-38.912 70.656-84.992 77.824v22.528c0 12.288-9.216 21.504-21.504 21.504s-21.504-9.216-21.504-21.504v-22.528c-48.128-8.192-84.992-43.008-84.992-83.968 0-39.936 27.648-66.56 84.992-80.896v-87.040c-23.552 6.144-40.96 20.48-43.008 37.888 0 11.264-12.288 20.48-22.528 19.456-11.264-1.024-20.48-11.264-19.456-23.552 3.072-38.912 38.912-69.632 84.992-76.8v-23.552c0-11.264 10.24-21.504 21.504-21.504s21.504 10.24 21.504 21.504v23.552c48.128 7.168 84.992 41.984 84.992 82.944 0 39.936-27.648 67.584-84.992 80.896zM448.512 330.496c0 18.432 17.408 33.792 41.984 39.936v-76.8c-28.672 8.192-41.984 20.48-41.984 36.864zM533.504 162.56v76.8c28.672-8.192 43.008-19.456 43.008-36.864s-18.432-33.792-43.008-39.936z" />
<glyph unicode="&#xe855;" glyph-name="skill-bar" d="M960.512 842.496h-896c-35.84 0-64.512-28.672-64.512-63.488v-86.016c0-34.816 28.672-63.488 64.512-63.488h766.976c0 0 0 0 1.024 0s0 0 0 0h128c34.816 0 63.488 28.672 63.488 63.488v86.016c0 34.816-28.672 63.488-63.488 63.488zM811.008 672.512h-98.304l98.304 97.28v-97.28zM652.288 672.512h-67.584l128 128h67.584l-128-128zM456.704 672.512l128 128h67.584l-128-128h-67.584zM328.704 672.512l128 128h67.584l-128-128h-67.584zM200.704 672.512l128 128h67.584l-128-128h-67.584zM72.704 672.512l128 128h67.584l-128-128h-67.584zM64.512 800.512h75.776l-97.28-98.304v76.8c0 11.264 9.216 21.504 21.504 21.504zM980.992 692.992c0-11.264-9.216-20.48-20.48-20.48h-107.52v128h107.52c11.264 0 20.48-10.24 20.48-21.504v-86.016zM960.512 586.496h-896c-35.84 0-64.512-28.672-64.512-63.488v-86.016c0-34.816 28.672-63.488 64.512-63.488h510.976c0 0 0 0 1.024 0s0 0 0 0h384c34.816 0 63.488 28.672 63.488 63.488v86.016c0 34.816-28.672 63.488-63.488 63.488zM555.008 416.512h-98.304l98.304 97.28v-97.28zM396.288 416.512h-67.584l128 128h67.584l-128-128zM200.704 416.512l128 128h67.584l-128-128h-67.584zM72.704 416.512l128 128h67.584l-128-128h-67.584zM64.512 544.512h75.776l-97.28-98.304v76.8c0 11.264 9.216 21.504 21.504 21.504zM980.992 436.992c0-11.264-9.216-20.48-20.48-20.48h-363.52v128h363.52c11.264 0 20.48-10.24 20.48-21.504v-86.016zM960.512 74.496h-896c-35.84 0-64.512-28.672-64.512-63.488v-86.016c0-34.816 28.672-63.488 64.512-63.488h254.976c0 0 0 0 1.024 0s0 0 0 0h640c34.816 0 63.488 28.672 63.488 63.488v86.016c0 34.816-28.672 63.488-63.488 63.488zM299.008-96.512h-98.304l98.304 98.304v-98.304zM140.288-96.512h-67.584l128 129.024h67.584l-128-129.024zM64.512 32.512h75.776l-97.28-98.304v76.8c0 11.264 9.216 21.504 21.504 21.504zM980.992-75.008c0-11.264-9.216-21.504-20.48-21.504h-619.52v129.024h619.52c11.264 0 20.48-10.24 20.48-21.504v-86.016zM960.512 330.496h-896c-35.84 0-64.512-28.672-64.512-63.488v-86.016c0-34.816 28.672-63.488 64.512-63.488h638.976c0 0 0 0 1.024 0s0 0 0 0h256c34.816 0 63.488 28.672 63.488 63.488v86.016c0 34.816-28.672 63.488-63.488 63.488zM683.008 160.512h-98.304l98.304 97.28v-97.28zM524.288 160.512h-67.584l128 128h67.584l-128-128zM328.704 160.512l128 128h67.584l-128-128h-67.584zM200.704 160.512l128 128h67.584l-128-128h-67.584zM72.704 160.512l128 128h67.584l-128-128h-67.584zM64.512 288.512h75.776l-97.28-98.304v76.8c0 11.264 9.216 21.504 21.504 21.504zM980.992 180.992c0-11.264-9.216-20.48-20.48-20.48h-235.52v128h235.52c11.264 0 20.48-10.24 20.48-21.504v-86.016z" />
<glyph unicode="&#xe85a;" glyph-name="slider-push" d="M811.008 629.504h-598.016c-11.264 0-20.48-9.216-20.48-21.504v-427.008c0-11.264 9.216-20.48 20.48-20.48h598.016c11.264 0 21.504 9.216 21.504 20.48v427.008c0 12.288-10.24 21.504-21.504 21.504zM789.504 202.496h-555.008v384h555.008v-384zM128 629.504h-84.992c-12.288 0-21.504-9.216-21.504-21.504s9.216-21.504 21.504-21.504h63.488v-384h-63.488c-12.288 0-21.504-9.216-21.504-21.504 0-11.264 9.216-20.48 21.504-20.48h84.992c12.288 0 21.504 9.216 21.504 20.48v427.008c0 12.288-9.216 21.504-21.504 21.504zM980.992 202.496h-63.488v384h63.488c12.288 0 21.504 10.24 21.504 21.504s-9.216 21.504-21.504 21.504h-84.992c-11.264 0-21.504-9.216-21.504-21.504v-427.008c0-11.264 10.24-20.48 21.504-20.48h84.992c12.288 0 21.504 9.216 21.504 20.48s-9.216 21.504-21.504 21.504z" />
<glyph unicode="&#xe85c;" glyph-name="slider-video" d="M811.008 586.496h-598.016c-11.264 0-20.48-9.216-20.48-21.504v-425.984c0-12.288 9.216-21.504 20.48-21.504h598.016c11.264 0 21.504 9.216 21.504 21.504v425.984c0 12.288-10.24 21.504-21.504 21.504zM789.504 160.512h-555.008v384h555.008v-384zM143.36 452.352c-8.192 8.192-22.528 8.192-30.72 0l-84.992-84.992c-8.192-8.192-8.192-22.528 0-30.72l84.992-84.992c4.096-4.096 10.24-6.144 15.36-6.144s11.264 2.048 15.36 6.144c8.192 8.192 8.192 21.504 0 29.696l-70.656 70.656 70.656 70.656c8.192 8.192 8.192 21.504 0 29.696zM996.352 367.36l-84.992 84.992c-8.192 8.192-22.528 8.192-30.72 0s-8.192-21.504 0-29.696l70.656-70.656-70.656-70.656c-8.192-8.192-8.192-21.504 0-29.696 4.096-4.096 10.24-6.144 15.36-6.144s11.264 2.048 15.36 6.144l84.992 84.992c8.192 8.192 8.192 22.528 0 30.72zM459.776 247.552c3.072-1.024 6.144-2.048 9.216-2.048 4.096 0 8.192 1.024 12.288 3.072l128 86.016c6.144 4.096 9.216 10.24 9.216 17.408s-3.072 14.336-9.216 17.408l-128 86.016c-7.168 4.096-15.36 4.096-21.504 1.024-7.168-4.096-11.264-11.264-11.264-19.456v-169.984c0-8.192 4.096-15.36 11.264-19.456zM490.496 397.056l68.608-45.056-68.608-45.056v90.112z" />
<glyph unicode="&#xe85d;" glyph-name="slides" d="M811.008 629.504h-598.016c-11.264 0-20.48-9.216-20.48-21.504v-427.008c0-11.264 9.216-20.48 20.48-20.48h598.016c11.264 0 21.504 9.216 21.504 20.48v427.008c0 12.288-10.24 21.504-21.504 21.504zM789.504 202.496h-555.008v384h555.008v-384zM143.36 495.36c-8.192 8.192-22.528 8.192-30.72 0l-84.992-86.016c-8.192-8.192-8.192-21.504 0-29.696l84.992-84.992c4.096-4.096 10.24-6.144 15.36-6.144s11.264 2.048 15.36 6.144c8.192 8.192 8.192 21.504 0 29.696l-70.656 70.656 70.656 69.632c8.192 8.192 8.192 22.528 0 30.72zM996.352 409.344l-84.992 86.016c-8.192 8.192-22.528 8.192-30.72 0s-8.192-22.528 0-30.72l70.656-69.632-70.656-70.656c-8.192-8.192-8.192-21.504 0-29.696 4.096-4.096 10.24-6.144 15.36-6.144s11.264 2.048 15.36 6.144l84.992 84.992c8.192 8.192 8.192 21.504 0 29.696z" />
<glyph unicode="&#xe85e;" glyph-name="social-icons" d="M948.224 808.704l-107.52 9.216c-48.128 4.096-97.28 4.096-145.408 0l-107.52-9.216c-43.008-4.096-75.776-38.912-75.776-81.92v-194.56c0-43.008 32.768-78.848 75.776-81.92l107.52-10.24c24.576-2.048 48.128-3.072 72.704-3.072s48.128 1.024 72.704 3.072l107.52 10.24c43.008 3.072 75.776 38.912 75.776 81.92v194.56c0 43.008-32.768 77.824-75.776 81.92zM980.992 532.224c0-20.48-15.36-37.888-35.84-39.936l-108.544-9.216c-45.056-4.096-92.16-4.096-137.216 0l-108.544 9.216c-20.48 2.048-35.84 19.456-35.84 39.936v194.56c0 20.48 15.36 37.888 35.84 39.936l108.544 9.216c22.528 2.048 46.080 3.072 68.608 3.072s46.080-1.024 68.608-3.072l108.544-9.216c20.48-2.048 35.84-19.456 35.84-39.936v-194.56zM715.776 732.928c-6.144 4.096-15.36 4.096-21.504 1.024-7.168-4.096-11.264-11.264-11.264-19.456v-169.984c0-8.192 4.096-15.36 11.264-19.456 3.072-1.024 6.144-2.048 10.24-2.048s8.192 1.024 11.264 3.072l128 86.016c6.144 3.072 9.216 10.24 9.216 17.408s-3.072 13.312-9.216 17.408l-128 86.016zM724.992 583.424v91.136l68.608-45.056-68.608-46.080zM454.656 268.032c1.024 2.048 2.048 5.12 2.048 8.192 3.072 8.192-1.024 17.408-8.192 22.528s-16.384 5.12-23.552 1.024c-5.12-3.072-23.552-11.264-37.888-15.36-38.912 30.72-84.992 32.768-131.072 7.168-34.816-20.48-46.080-56.32-47.104-84.992-70.656 10.24-114.688 48.128-140.288 79.872-5.12 5.12-11.264 8.192-18.432 7.168-7.168 0-13.312-4.096-16.384-10.24-15.36-24.576-19.456-52.224-12.288-79.872 1.024-5.12 2.048-9.216 4.096-13.312 0-1.024-1.024-1.024-1.024-1.024-7.168-4.096-12.288-11.264-12.288-19.456 0-32.768 14.336-58.368 32.768-75.776 0 0-1.024-1.024-1.024-1.024-5.12-6.144-7.168-15.36-3.072-23.552 11.264-24.576 29.696-43.008 53.248-55.296-22.528-7.168-47.104-10.24-70.656-7.168-10.24 1.024-19.456-5.12-22.528-15.36-3.072-9.216 1.024-20.48 10.24-24.576 49.152-27.648 100.352-41.984 149.504-40.96 51.2 0 100.352 14.336 144.384 44.032 76.8 51.2 124.928 141.312 120.832 223.232 12.288 9.216 28.672 24.576 39.936 41.984 5.12 8.192 4.096 19.456-2.048 26.624-3.072 3.072-6.144 5.12-9.216 6.144zM281.6 4.864c-32.768-21.504-94.208-49.152-174.080-30.72 21.504 7.168 40.96 18.432 57.344 31.744 6.144 6.144 8.192 15.36 5.12 23.552s-10.24 13.312-19.456 14.336c-17.408 0-32.768 5.12-45.056 13.312 6.144 2.048 11.264 5.12 16.384 9.216 7.168 5.12 9.216 14.336 7.168 22.528s-10.24 14.336-18.432 15.36c-7.168 0-30.72 10.24-45.056 31.744 5.12 0 11.264 0 16.384 1.024 8.192 2.048 15.36 8.192 16.384 17.408 2.048 9.216-2.048 17.408-10.24 21.504-7.168 5.12-20.48 18.432-25.6 37.888-1.024 6.144-2.048 12.288-2.048 18.432 36.864-33.792 91.136-66.56 169.984-70.656 6.144-1.024 13.312 3.072 17.408 8.192s6.144 12.288 4.096 18.432c-3.072 11.264-2.048 50.176 25.6 65.536 33.792 19.456 62.464 16.384 89.088-8.192 3.072-3.072 7.168-4.096 11.264-5.12-1.024-3.072-1.024-6.144 0-9.216 1.024-6.144 5.12-11.264 9.216-14.336-3.072-4.096-5.12-10.24-4.096-15.36 8.192-70.656-33.792-150.528-101.376-196.608zM405.504 820.992h-340.992c-35.84 0-64.512-28.672-64.512-63.488v-340.992c0-35.84 28.672-64.512 64.512-64.512h340.992c34.816 0 63.488 28.672 63.488 64.512v340.992c0 34.816-28.672 63.488-63.488 63.488zM427.008 416.512c0-12.288-10.24-21.504-21.504-21.504h-149.504v169.984h43.008c11.264 0 21.504 10.24 21.504 21.504s-10.24 21.504-21.504 21.504h-43.008c0 23.552 19.456 43.008 43.008 43.008h21.504c11.264 0 20.48 9.216 20.48 21.504s-9.216 20.48-20.48 20.48h-21.504c-47.104 0-86.016-37.888-86.016-84.992h-20.48c-12.288 0-21.504-9.216-21.504-21.504s9.216-21.504 21.504-21.504h20.48v-169.984h-148.48c-12.288 0-21.504 9.216-21.504 21.504v340.992c0 11.264 9.216 21.504 21.504 21.504h340.992c11.264 0 21.504-10.24 21.504-21.504v-340.992zM874.496 395.008h-212.992c-82.944 0-149.504-67.584-149.504-149.504v-212.992c0-82.944 66.56-149.504 149.504-149.504h212.992c82.944 0 149.504 66.56 149.504 149.504v212.992c0 81.92-66.56 149.504-149.504 149.504zM980.992 32.512c0-59.392-47.104-107.52-106.496-107.52h-212.992c-59.392 0-106.496 48.128-106.496 107.52v212.992c0 58.368 47.104 106.496 106.496 106.496h212.992c59.392 0 106.496-48.128 106.496-106.496v-212.992zM768 267.008c-70.656 0-128-57.344-128-128s57.344-128 128-128 128 57.344 128 128-57.344 128-128 128zM768 52.992c-47.104 0-84.992 38.912-84.992 86.016s37.888 84.992 84.992 84.992 84.992-37.888 84.992-84.992-37.888-86.016-84.992-86.016z" />
<glyph unicode="&#xe861;" glyph-name="tabs" d="M1011.712 581.376l-43.008 113.664c-9.216 24.576-32.768 40.96-59.392 40.96h-195.584c-21.504 0-40.96-10.24-52.224-26.624-12.288 16.384-30.72 26.624-52.224 26.624h-194.56c-21.504 0-39.936-10.24-52.224-26.624-11.264 16.384-30.72 26.624-52.224 26.624h-195.584c-26.624 0-50.176-16.384-59.392-40.96l-46.080-122.88c-6.144-16.384-9.216-32.768-9.216-50.176v-489.472c0-35.84 28.672-64.512 64.512-64.512h896c34.816 0 63.488 28.672 63.488 64.512v512c0 13.312-5.12 26.624-12.288 36.864zM713.728 692.992h195.584c9.216 0 16.384-5.12 20.48-13.312l26.624-71.68h-258.048l-14.336 43.008 9.216 27.648c3.072 9.216 11.264 14.336 20.48 14.336zM414.72 692.992h194.56c9.216 0 17.408-5.12 20.48-14.336l23.552-70.656h-253.952l-14.336 43.008 9.216 27.648c3.072 9.216 11.264 14.336 20.48 14.336zM980.992 32.512c0-12.288-9.216-21.504-20.48-21.504h-896c-12.288 0-21.504 9.216-21.504 21.504v489.472c0 12.288 2.048 23.552 6.144 34.816l46.080 122.88c3.072 8.192 10.24 13.312 19.456 13.312h195.584c9.216 0 17.408-5.12 20.48-14.336l32.768-98.304c3.072-9.216 11.264-15.36 20.48-15.36h576.512c5.12 0 10.24-2.048 13.312-5.12l1.024-3.072c1.024-2.048 3.072-4.096 5.12-6.144 1.024-2.048 1.024-4.096 1.024-6.144v-512z" />
<glyph unicode="&#xe868;" glyph-name="time-line" d="M683.008 458.496h256c34.816 0 63.488 28.672 63.488 64.512v256c0 34.816-28.672 63.488-63.488 63.488h-256c-35.84 0-64.512-28.672-64.512-63.488v-33.792l-55.296-56.32c-8.192 10.24-18.432 17.408-29.696 21.504v110.592c0 12.288-9.216 21.504-21.504 21.504s-21.504-9.216-21.504-21.504v-110.592c-24.576-8.192-41.984-31.744-41.984-59.392s17.408-51.2 41.984-60.416v-178.176c-11.264-4.096-21.504-12.288-29.696-21.504l-55.296 55.296v33.792c0 34.816-28.672 64.512-64.512 64.512h-256c-34.816 0-63.488-29.696-63.488-64.512v-256c0-34.816 28.672-63.488 63.488-63.488h256c35.84 0 64.512 28.672 64.512 63.488v33.792l55.296 56.32c8.192-10.24 18.432-18.432 29.696-22.528v-178.176c-24.576-9.216-41.984-32.768-41.984-60.416s17.408-51.2 41.984-59.392v-110.592c0-12.288 10.24-21.504 21.504-21.504s21.504 9.216 21.504 21.504v110.592c11.264 4.096 21.504 11.264 29.696 21.504l55.296-56.32v-33.792c0-34.816 28.672-63.488 64.512-63.488h256c34.816 0 63.488 28.672 63.488 63.488v256c0 35.84-28.672 64.512-63.488 64.512h-256c-35.84 0-64.512-28.672-64.512-64.512v-33.792l-55.296-55.296c-8.192 10.24-18.432 17.408-29.696 21.504v178.176c24.576 9.216 43.008 32.768 43.008 60.416s-18.432 51.2-43.008 60.416v178.176c11.264 4.096 21.504 12.288 29.696 21.504l55.296-55.296v-33.792c0-35.84 28.672-64.512 64.512-64.512zM512 672.512c12.288 0 21.504-10.24 21.504-21.504v0c0-12.288-9.216-21.504-21.504-21.504s-21.504 9.216-21.504 21.504 10.24 21.504 21.504 21.504zM368.64 281.344c-4.096-3.072-6.144-9.216-6.144-14.336v-43.008c0-11.264-9.216-21.504-21.504-21.504h-256c-11.264 0-20.48 10.24-20.48 21.504v256c0 12.288 9.216 21.504 20.48 21.504h256c12.288 0 21.504-9.216 21.504-21.504v-43.008c0-5.12 2.048-10.24 6.144-14.336l70.656-70.656-70.656-70.656zM512 74.496c12.288 0 21.504-9.216 21.504-21.504v0c0-11.264-9.216-20.48-21.504-20.48s-21.504 9.216-21.504 20.48 10.24 21.504 21.504 21.504zM655.36 123.648c4.096 4.096 6.144 9.216 6.144 15.36v41.984c0 12.288 9.216 21.504 21.504 21.504h256c11.264 0 21.504-9.216 21.504-21.504v-256c0-11.264-10.24-21.504-21.504-21.504h-256c-12.288 0-21.504 10.24-21.504 21.504v43.008c0 5.12-2.048 11.264-6.144 15.36l-70.656 69.632 70.656 70.656zM512 330.496c-11.264 0-21.504 10.24-21.504 21.504v0c0 12.288 10.24 21.504 21.504 21.504s21.504-9.216 21.504-21.504-9.216-21.504-21.504-21.504zM584.704 651.008l70.656 69.632c4.096 4.096 6.144 9.216 6.144 15.36v43.008c0 11.264 9.216 21.504 21.504 21.504h256c11.264 0 21.504-10.24 21.504-21.504v-256c0-12.288-10.24-21.504-21.504-21.504h-256c-12.288 0-21.504 9.216-21.504 21.504v41.984c0 6.144-2.048 11.264-6.144 15.36l-70.656 70.656z" />
<glyph unicode="&#xe871;" glyph-name="favorite" d="M512-160c-282.624 0-512 229.376-512 512s229.376 512 512 512 512-229.376 512-512-229.376-512-512-512zM512 820.992c-259.072 0-468.992-209.92-468.992-468.992s209.92-468.992 468.992-468.992 468.992 209.92 468.992 468.992-209.92 468.992-468.992 468.992zM704.512 52.992c-4.096 0-8.192 2.048-12.288 4.096l-180.224 119.808-180.224-119.808c-7.168-5.12-17.408-5.12-24.576 0s-10.24 14.336-8.192 23.552l60.416 220.16-180.224 141.312c-7.168 5.12-10.24 15.36-7.168 23.552s11.264 14.336 20.48 14.336h220.16l79.872 199.68c6.144 16.384 32.768 16.384 38.912 0l79.872-199.68h221.184c8.192 0 16.384-6.144 19.456-14.336s0-18.432-7.168-23.552l-180.224-141.312 60.416-220.16c2.048-9.216-1.024-18.432-8.192-23.552-4.096-2.048-8.192-4.096-12.288-4.096zM512 224c4.096 0 8.192-1.024 12.288-3.072l144.384-97.28-49.152 180.224c-2.048 8.192 1.024 17.408 7.168 22.528l143.36 110.592h-173.056c-8.192 0-16.384 6.144-19.456 13.312l-65.536 163.84-65.536-162.816c-3.072-8.192-11.264-14.336-19.456-14.336h-173.056l143.36-110.592c6.144-5.12 9.216-14.336 7.168-22.528l-49.152-180.224 144.384 97.28c4.096 2.048 8.192 3.072 12.288 3.072z" />
<glyph unicode="&#xe873;" glyph-name="image" d="M43.008 78.592l217.088 307.2c9.216 9.216 21.504 13.312 34.816 5.12l140.288-98.304 196.608 238.592c8.192 13.312 29.696 13.312 37.888 0l311.296-464.896v622.592h-937.984v-610.304zM960.512 11.008l-316.416 468.992-187.392-230.4c-8.192-8.192-21.504-12.288-29.696-4.096l-137.216 98.304-234.496-332.8h905.216zM21.504-36.096c-13.312 0-25.6 8.192-25.6 21.504v724.992c0 17.408 12.288 25.6 25.6 25.6h980.992c13.312 0 21.504-8.192 21.504-21.504v-724.992c0-13.312-8.192-21.504-21.504-21.504h-980.992zM273.408 548.608c0 25.6-21.504 51.2-47.104 51.2s-51.2-21.504-51.2-51.2 21.504-51.2 47.104-51.2 51.2 25.6 51.2 51.2zM320.512 548.608c0-51.2-43.008-98.304-94.208-98.304s-98.304 47.104-98.304 98.304 43.008 98.304 94.208 98.304 98.304-43.008 98.304-98.304z" />
<glyph unicode="&#xe874;" glyph-name="photo-library" d="M746.496 139.008h-724.992c-12.288 0-21.504 9.216-21.504 21.504v640c0 11.264 9.216 20.48 21.504 20.48h724.992c12.288 0 21.504-9.216 21.504-20.48v-640c0-12.288-9.216-21.504-21.504-21.504zM43.008 180.992h681.984v598.016h-681.984v-598.016zM746.496 139.008c-7.168 0-15.36 4.096-18.432 11.264l-217.088 434.176-151.552-264.192c-3.072-6.144-8.192-10.24-15.36-10.24-6.144-1.024-13.312 1.024-17.408 5.12l-109.568 109.568-178.176-276.48c-6.144-9.216-19.456-12.288-28.672-6.144-10.24 6.144-13.312 19.456-7.168 29.696l192.512 297.984c3.072 6.144 9.216 9.216 15.36 10.24s13.312-2.048 17.408-6.144l108.544-108.544 156.672 274.432c4.096 7.168 11.264 11.264 19.456 11.264 7.168 0 14.336-5.12 18.432-12.288l234.496-468.992c5.12-10.24 1.024-23.552-9.216-28.672-3.072-2.048-7.168-2.048-10.24-2.048zM234.496 523.008c-58.368 0-106.496 47.104-106.496 106.496s48.128 106.496 106.496 106.496 106.496-48.128 106.496-106.496-47.104-106.496-106.496-106.496zM234.496 692.992c-34.816 0-63.488-28.672-63.488-63.488s28.672-64.512 63.488-64.512 64.512 28.672 64.512 64.512-28.672 63.488-64.512 63.488zM832.512 52.992h-726.016c-11.264 0-21.504 10.24-21.504 21.504v86.016c0 11.264 10.24 20.48 21.504 20.48s21.504-9.216 21.504-20.48v-64.512h683.008v596.992h-43.008c-11.264 0-21.504 10.24-21.504 21.504s10.24 21.504 21.504 21.504h64.512c11.264 0 20.48-9.216 20.48-21.504v-640c0-11.264-9.216-21.504-20.48-21.504zM917.504-32h-724.992c-12.288 0-21.504 9.216-21.504 21.504v84.992c0 12.288 9.216 21.504 21.504 21.504s20.48-9.216 20.48-21.504v-63.488h683.008v596.992h-63.488c-12.288 0-21.504 9.216-21.504 21.504s9.216 21.504 21.504 21.504h84.992c11.264 0 21.504-10.24 21.504-21.504v-640c0-12.288-10.24-21.504-21.504-21.504zM1002.496-116.992h-724.992c-12.288 0-21.504 9.216-21.504 20.48v86.016c0 11.264 9.216 21.504 21.504 21.504s21.504-10.24 21.504-21.504v-64.512h681.984v555.008h-63.488c-12.288 0-21.504 9.216-21.504 21.504s9.216 21.504 21.504 21.504h84.992c12.288 0 21.504-10.24 21.504-21.504v-598.016c0-11.264-9.216-20.48-21.504-20.48z" />
<glyph unicode="&#xe87b;" glyph-name="counter-circle" d="M328.704 493.312c-8.192 0-13.312 0-17.408-5.12l-63.488-93.184c-4.096-9.216-4.096-17.408 4.096-21.504s17.408-4.096 21.504 4.096l33.792 51.2v-200.704c0-8.192 8.192-16.384 17.408-16.384 8.192 0 16.384 8.192 16.384 16.384v247.808c0 8.192-4.096 12.288-12.288 17.408zM482.304 493.312c-43.008 0-76.8-34.816-76.8-76.8 0-9.216 8.192-17.408 17.408-17.408s16.384 8.192 16.384 17.408c0 25.6 21.504 46.080 47.104 46.080s47.104-20.48 47.104-46.080v-9.216c0-8.192-4.096-21.504-8.192-29.696l-111.616-140.288c-4.096-5.12-4.096-13.312 0-17.408s9.216-8.192 13.312-8.192h123.904c8.192 0 16.384 8.192 16.384 16.384s-8.192 17.408-16.384 17.408h-94.208l89.088 114.688c13.312 13.312 17.408 30.72 17.408 47.104v9.216c-4.096 41.984-37.888 76.8-80.896 76.8zM776.192 416.512c0 41.984-33.792 76.8-76.8 76.8s-76.8-34.816-76.8-76.8c0-9.216 9.216-17.408 17.408-17.408s17.408 8.192 17.408 17.408c0 25.6 21.504 46.080 47.104 46.080s46.080-20.48 46.080-46.080-20.48-47.104-46.080-47.104c-9.216 0-17.408-9.216-17.408-17.408s8.192-17.408 17.408-17.408c25.6 0 46.080-20.48 46.080-46.080s-20.48-47.104-46.080-47.104c-25.6 0-47.104 21.504-47.104 47.104 0 8.192-9.216 16.384-17.408 16.384s-17.408-8.192-17.408-16.384c0-43.008 34.816-76.8 76.8-76.8s76.8 33.792 76.8 76.8c0 25.6-12.288 46.080-29.696 63.488 17.408 13.312 29.696 38.912 29.696 64.512zM512 842.496c269.312 0 490.496-221.184 490.496-490.496s-221.184-490.496-490.496-490.496-490.496 222.208-490.496 490.496c0 94.208 25.6 187.392 80.896 269.312 8.192 8.192 21.504 12.288 29.696 4.096 9.216-4.096 13.312-17.408 4.096-29.696-46.080-72.704-71.68-153.6-71.68-243.712 0-247.808 199.68-448.512 447.488-448.512s448.512 200.704 448.512 448.512-200.704 448.512-448.512 448.512c-12.288 0-21.504 8.192-21.504 20.48s9.216 21.504 21.504 21.504z" />
<glyph unicode="&#xe894;" glyph-name="mail" d="M917.504 11.008h-811.008c-58.368 0-106.496 47.104-106.496 106.496v468.992c0 59.392 48.128 106.496 106.496 106.496h811.008c58.368 0 106.496-47.104 106.496-106.496v-468.992c0-59.392-48.128-106.496-106.496-106.496zM106.496 651.008c-34.816 0-63.488-28.672-63.488-64.512v-468.992c0-35.84 28.672-64.512 63.488-64.512h811.008c34.816 0 63.488 28.672 63.488 64.512v468.992c0 35.84-28.672 64.512-63.488 64.512h-811.008zM512 308.992c-23.552 0-47.104 7.168-67.584 20.48l-350.208 239.616c-9.216 7.168-11.264 19.456-5.12 29.696s19.456 12.288 29.696 5.12l350.208-238.592c25.6-18.432 60.416-18.432 86.016 0l350.208 238.592c10.24 7.168 23.552 4.096 29.696-5.12 7.168-10.24 4.096-22.528-5.12-29.696l-350.208-239.616c-20.48-13.312-44.032-20.48-67.584-20.48zM106.496 96c-6.144 0-12.288 3.072-16.384 8.192-7.168 8.192-6.144 22.528 3.072 29.696l256 212.992c9.216 8.192 22.528 6.144 29.696-2.048 8.192-9.216 6.144-22.528-2.048-30.72l-256-212.992c-4.096-3.072-9.216-5.12-14.336-5.12zM917.504 96c-5.12 0-10.24 2.048-13.312 5.12l-256 212.992c-9.216 8.192-10.24 21.504-3.072 30.72 7.168 8.192 20.48 10.24 29.696 2.048l256-212.992c9.216-7.168 10.24-21.504 3.072-29.696-4.096-5.12-10.24-8.192-16.384-8.192z" />
<glyph unicode="&#xe89d;" glyph-name="play" d="M858.112 698.112c-94.208 93.184-209.92 140.288-346.112 140.288-132.096 0-247.808-47.104-345.088-140.288-94.208-94.208-141.312-209.92-141.312-346.112s47.104-251.904 141.312-345.088c93.184-94.208 208.896-145.408 345.088-145.408s251.904 47.104 346.112 145.408c93.184 93.184 140.288 208.896 140.288 345.088s-47.104 251.904-140.288 346.112M827.392 667.392c86.016-89.088 128-191.488 128-315.392s-41.984-230.4-128-315.392c-84.992-86.016-191.488-133.12-315.392-133.12s-226.304 43.008-311.296 133.12c-84.992 84.992-132.096 191.488-132.096 315.392s41.984 226.304 132.096 315.392c84.992 86.016 191.488 133.12 311.296 133.12 123.904 0 226.304-47.104 315.392-133.12M448.512 462.592v-256l208.896 128-208.896 128z" />
<glyph unicode="&#xe8af;" glyph-name="heading" d="M620.544-75.008v0c0 0 0 0 0 0zM632.832 815.872c0 0 0 0 0 0s-1.024 1.024-1.024 1.024c0 0 0 0 1.024-1.024 0 0 0 0 0 0zM406.528 779.008c0 0 0 0 0 0v0zM119.808 815.872c1.024 0 1.024 0 0 0 0 0 0 1.024-1.024 1.024 0 0 1.024 0 1.024-1.024 0 0 0 0 0 0zM108.544-75.008c0 0 0 0 0 0v0zM768-75.008l61.44 1.024c-3.072 4.096-6.144 9.216-8.192 15.36-8.192 19.456-9.216 35.84-8.192 70.656 0 7.168 0 10.24 0 14.336v666.624c0 36.864 7.168 65.536 21.504 86.016h-64.512l-66.56-1.024c14.336-20.48 21.504-49.152 21.504-86.016v-252.928c0-24.576-19.456-45.056-44.032-45.056h-334.848c-25.6 0-45.056 20.48-45.056 45.056v253.952c0 36.864 7.168 65.536 21.504 86.016h-64.512l-66.56-1.024c14.336-20.48 21.504-49.152 21.504-86.016v-666.624c0-4.096 0-7.168 0-14.336 1.024-35.84 0-51.2-8.192-71.68-2.048-5.12-5.12-10.24-7.168-14.336h119.808c-3.072 5.12-6.144 10.24-8.192 15.36-8.192 20.48-9.216 35.84-8.192 71.68 0 7.168 0 10.24 0 14.336v237.568c0 24.576 20.48 45.056 45.056 45.056h334.848c24.576 0 44.032-20.48 44.032-45.056v-238.592c0-4.096 0-7.168 1.024-14.336 1.024-35.84 0-51.2-9.216-71.68-2.048-5.12-4.096-10.24-7.168-14.336h58.368zM343.040 264.96v-238.592c0-43.008-9.216-92.16 50.176-98.304 6.144 0 12.288-1.024 18.432-3.072 9.216-3.072 15.36-11.264 15.36-20.48 0-12.288-9.216-21.504-21.504-21.504h-296.96c-12.288 0-21.504 9.216-21.504 20.48 0 10.24 6.144 18.432 15.36 20.48 6.144 2.048 11.264 3.072 17.408 3.072 59.392 6.144 50.176 55.296 50.176 98.304v666.624c0 96.256-57.344 78.848-72.704 88.064-1.024 1.024-2.048 1.024-3.072 2.048-9.216 7.168-12.288 20.48-5.12 29.696 4.096 6.144 10.24 9.216 17.408 9.216h300.032c6.144 0 13.312-3.072 17.408-8.192 6.144-10.24 4.096-23.552-5.12-30.72-18.432-11.264-75.776 7.168-75.776-89.088v-253.952c0-1.024 1.024-2.048 3.072-2.048h333.824c1.024 0 2.048 1.024 2.048 2.048v252.928c0 96.256-57.344 78.848-72.704 88.064 0 1.024-1.024 1.024-2.048 2.048-10.24 7.168-12.288 20.48-5.12 29.696 3.072 6.144 10.24 9.216 17.408 9.216h299.008c7.168 0 13.312-3.072 17.408-8.192 7.168-10.24 4.096-23.552-5.12-30.72-17.408-11.264-74.752 7.168-74.752-89.088v-666.624c0-43.008-9.216-92.16 50.176-98.304 6.144 0 12.288-1.024 17.408-3.072 9.216-3.072 16.384-11.264 16.384-20.48 0-12.288-10.24-21.504-21.504-21.504h-297.984c-11.264 0-21.504 9.216-21.504 20.48 0 10.24 7.168 18.432 16.384 20.48 5.12 2.048 11.264 3.072 17.408 3.072 58.368 6.144 49.152 55.296 49.152 98.304v239.616c0 1.024-1.024 2.048-2.048 2.048h-333.824c-2.048 0-3.072-1.024-3.072-2.048z" />
<glyph unicode="&#xe8b0;" glyph-name="logo" d="M959.488 352c0 247.808-200.704 447.488-447.488 447.488s-447.488-199.68-447.488-447.488 199.68-447.488 447.488-447.488 447.488 199.68 447.488 447.488zM1002.496 352c0-271.36-219.136-490.496-490.496-490.496s-490.496 219.136-490.496 490.496 219.136 490.496 490.496 490.496 490.496-219.136 490.496-490.496zM210.944 428.8h9.216c7.168 0 12.288-5.12 12.288-11.264v-101.376c0-7.168 5.12-12.288 11.264-12.288h28.672c7.168 0 12.288-5.12 12.288-11.264v-10.24c0-7.168-5.12-12.288-12.288-12.288h-61.44c-6.144 0-11.264 5.12-11.264 12.288v135.168c0 6.144 5.12 11.264 11.264 11.264zM430.080 350.976c0 15.36-5.12 27.648-13.312 36.864-9.216 10.24-21.504 14.336-35.84 14.336s-27.648-4.096-35.84-14.336-14.336-21.504-14.336-36.864c0-16.384 5.12-28.672 14.336-37.888s21.504-14.336 35.84-14.336 26.624 5.12 35.84 14.336c8.192 9.216 13.312 21.504 13.312 37.888zM321.536 292.608c-16.384 15.36-24.576 33.792-24.576 58.368 0 23.552 8.192 43.008 24.576 58.368s35.84 22.528 59.392 22.528c23.552 0 43.008-7.168 59.392-22.528 15.36-15.36 23.552-34.816 23.552-58.368s-8.192-43.008-23.552-58.368c-16.384-15.36-35.84-23.552-59.392-23.552s-43.008 8.192-59.392 23.552zM480.256 350.976c0 23.552 8.192 41.984 24.576 57.344s35.84 23.552 58.368 23.552c18.432 0 33.792-4.096 48.128-13.312 13.312-9.216 23.552-22.528 26.624-34.816 0-7.168-8.192-8.192-21.504-8.192-4.096 0-7.168 2.048-10.24 6.144-7.168 14.336-25.6 20.48-43.008 20.48-15.36 0-26.624-4.096-35.84-14.336s-13.312-21.504-13.312-36.864c0-16.384 4.096-28.672 13.312-37.888s20.48-14.336 33.792-14.336c13.312 0 23.552 4.096 31.744 10.24s11.264 11.264 13.312 19.456h-41.984c-6.144 0-11.264 5.12-11.264 11.264 0 0 0 0 0 0v8.192c0 7.168 5.12 11.264 11.264 11.264l65.536-1.024c6.144 0 11.264-5.12 11.264-11.264v-11.264c-3.072-16.384-9.216-32.768-24.576-45.056-14.336-13.312-32.768-20.48-55.296-20.48s-40.96 8.192-56.32 23.552c-16.384 14.336-24.576 33.792-24.576 57.344zM792.576 350.976c0 15.36-5.12 27.648-14.336 36.864s-20.48 14.336-35.84 14.336-26.624-4.096-35.84-14.336-13.312-21.504-13.312-36.864c0-16.384 5.12-28.672 13.312-37.888 10.24-9.216 21.504-14.336 35.84-14.336s27.648 5.12 35.84 14.336c10.24 9.216 14.336 21.504 14.336 37.888zM684.032 292.608c-16.384 15.36-24.576 33.792-24.576 58.368 0 23.552 8.192 43.008 24.576 58.368s35.84 22.528 59.392 22.528 43.008-7.168 58.368-22.528c16.384-15.36 24.576-34.816 24.576-58.368s-8.192-43.008-24.576-58.368c-15.36-15.36-35.84-23.552-59.392-23.552-22.528 0-43.008 8.192-58.368 23.552zM162.816 484.096c-9.216 0-17.408 8.192-17.408 17.408s8.192 17.408 17.408 17.408h690.176c10.24 0 17.408-8.192 17.408-17.408s-7.168-17.408-17.408-17.408h-690.176zM162.816 186.112c-9.216 0-17.408 7.168-17.408 16.384s8.192 17.408 17.408 17.408h690.176c10.24 0 17.408-8.192 17.408-17.408s-7.168-16.384-17.408-16.384h-690.176z" />
<glyph unicode="&#xe8c6;" glyph-name="featured-image" d="M106.496 180.992c-11.264 0-21.504 10.24-21.504 21.504v555.008c0 12.288 10.24 21.504 21.504 21.504h811.008c12.288 0 21.504-9.216 21.504-21.504v-555.008c0-11.264-9.216-21.504-21.504-21.504h-811.008zM128 224h768v512h-768v-512zM106.496 52.992c-11.264 0-21.504 10.24-21.504 21.504s10.24 21.504 21.504 21.504h342.016c11.264 0 20.48-9.216 20.48-21.504s-9.216-21.504-20.48-21.504h-342.016zM576.512 52.992c-12.288 0-21.504 10.24-21.504 21.504s9.216 21.504 21.504 21.504h340.992c12.288 0 21.504-9.216 21.504-21.504s-9.216-21.504-21.504-21.504h-340.992zM106.496-75.008c-11.264 0-21.504 9.216-21.504 21.504s10.24 21.504 21.504 21.504h342.016c11.264 0 20.48-9.216 20.48-21.504s-9.216-21.504-20.48-21.504h-342.016zM576.512-75.008c-12.288 0-21.504 9.216-21.504 21.504s9.216 21.504 21.504 21.504h340.992c12.288 0 21.504-9.216 21.504-21.504s-9.216-21.504-21.504-21.504h-340.992zM324.608 413.44l-201.728-225.28c-8.192-9.216-21.504-9.216-30.72-2.048-9.216 8.192-9.216 21.504-2.048 30.72l215.040 238.592c7.168 8.192 19.456 9.216 27.648 3.072l126.976-90.112 178.176 223.232c9.216 11.264 25.6 10.24 33.792-1.024l263.168-375.808c6.144-10.24 4.096-23.552-5.12-29.696-10.24-7.168-23.552-4.096-30.72 5.12l-245.76 351.232-172.032-216.064c-7.168-9.216-20.48-11.264-29.696-4.096l-126.976 92.16zM313.344 603.904c0 25.6-19.456 47.104-44.032 47.104s-44.032-21.504-44.032-47.104 20.48-47.104 44.032-47.104 44.032 20.48 44.032 47.104zM356.352 603.904c0-49.152-38.912-90.112-87.040-90.112s-86.016 40.96-86.016 90.112 37.888 89.088 86.016 89.088 87.040-39.936 87.040-89.088z" />
<glyph unicode="&#xe8c9;" glyph-name="site-logo" d="M980.992 608h-937.984v-657.408c0-37.888 28.672-67.584 63.488-67.584h811.008c34.816 0 63.488 29.696 63.488 67.584v657.408zM980.992 651.008v59.392c0 37.888-28.672 68.608-63.488 68.608h-811.008c-34.816 0-63.488-30.72-63.488-68.608v-59.392h937.984zM1024-49.408c0-60.416-47.104-110.592-106.496-110.592h-811.008c-59.392 0-106.496 50.176-106.496 110.592v759.808c0 61.44 47.104 110.592 106.496 110.592h811.008c59.392 0 106.496-49.152 106.496-110.592v-759.808zM128 714.496c0-11.264-9.216-21.504-21.504-21.504s-21.504 10.24-21.504 21.504 10.24 21.504 21.504 21.504 21.504-9.216 21.504-21.504M212.992 714.496c0-11.264-9.216-21.504-20.48-21.504s-21.504 10.24-21.504 21.504 9.216 21.504 21.504 21.504 20.48-9.216 20.48-21.504M299.008 714.496c0-11.264-9.216-21.504-21.504-21.504s-21.504 10.24-21.504 21.504 9.216 21.504 21.504 21.504c12.288 0 21.504-9.216 21.504-21.504M183.296 306.944h11.264c6.144 0 12.288-6.144 12.288-13.312v-105.472c0-7.168 6.144-12.288 13.312-12.288h30.72c7.168 0 13.312-6.144 13.312-13.312v-10.24c0-7.168-5.12-12.288-13.312-12.288 0 0 0 0 0 0h-66.56c-7.168 0-13.312 5.12-13.312 12.288v141.312c0 7.168 5.12 13.312 12.288 13.312zM421.888 224c0 16.384-5.12 29.696-14.336 39.936-10.24 9.216-23.552 14.336-39.936 14.336s-28.672-5.12-38.912-14.336c-10.24-10.24-15.36-23.552-15.36-39.936s5.12-29.696 15.36-39.936c10.24-9.216 22.528-14.336 38.912-14.336s29.696 5.12 39.936 14.336c10.24 10.24 14.336 23.552 14.336 39.936zM304.128 162.56c-17.408 16.384-26.624 36.864-26.624 61.44s9.216 45.056 26.624 61.44 38.912 23.552 64.512 23.552 47.104-8.192 64.512-23.552c17.408-16.384 25.6-36.864 25.6-61.44s-8.192-45.056-25.6-61.44c-17.408-15.36-38.912-23.552-64.512-23.552s-47.104 8.192-64.512 23.552zM477.184 224c0 24.576 9.216 45.056 26.624 61.44 17.408 15.36 38.912 23.552 64.512 23.552 18.432 0 35.84-4.096 51.2-13.312 14.336-9.216 25.6-23.552 28.672-35.84 1.024-8.192-8.192-10.24-22.528-10.24-4.096 0-8.192 3.072-11.264 7.168-8.192 14.336-27.648 22.528-47.104 22.528-16.384 0-28.672-5.12-38.912-15.36-10.24-9.216-15.36-22.528-15.36-39.936 0-16.384 5.12-29.696 15.36-38.912 10.24-10.24 22.528-15.36 36.864-15.36s25.6 4.096 34.816 10.24c9.216 6.144 12.288 12.288 14.336 20.48h-46.080c-6.144 0-12.288 5.12-12.288 12.288 0 0 0 1.024 0 1.024v7.168c1.024 6.144 6.144 12.288 13.312 12.288l70.656-1.024c7.168 0 12.288-5.12 12.288-13.312v-10.24c-3.072-18.432-10.24-34.816-26.624-48.128-16.384-14.336-35.84-20.48-60.416-20.48s-45.056 7.168-62.464 23.552c-17.408 15.36-25.6 35.84-25.6 60.416zM817.152 224c0 16.384-5.12 29.696-15.36 39.936-10.24 9.216-23.552 14.336-38.912 14.336-16.384 0-29.696-5.12-39.936-14.336-10.24-10.24-14.336-23.552-14.336-39.936s5.12-29.696 14.336-39.936c10.24-9.216 23.552-14.336 39.936-14.336 15.36 0 28.672 5.12 38.912 14.336 10.24 10.24 15.36 23.552 15.36 39.936zM698.368 162.56c-17.408 16.384-25.6 36.864-25.6 61.44s8.192 45.056 26.624 61.44 37.888 23.552 63.488 23.552c25.6 0 47.104-8.192 64.512-23.552 17.408-16.384 26.624-36.864 26.624-61.44s-9.216-45.056-26.624-61.44c-17.408-15.36-38.912-23.552-64.512-23.552s-47.104 8.192-64.512 23.552zM874.496 52.992h-724.992c-12.288 0-21.504 10.24-21.504 21.504s9.216 21.504 21.504 21.504h724.992c12.288 0 21.504-9.216 21.504-21.504s-9.216-21.504-21.504-21.504zM874.496 352h-724.992c-12.288 0-21.504 9.216-21.504 21.504s9.216 21.504 21.504 21.504h724.992c12.288 0 21.504-9.216 21.504-21.504s-9.216-21.504-21.504-21.504z" />
<glyph unicode="&#xe8d2;" glyph-name="cart" d="M471.040 52.992c35.84 0 64.512-28.672 64.512-63.488s-28.672-64.512-64.512-64.512-65.536 28.672-65.536 64.512 29.696 63.488 65.536 63.488zM727.040 52.992c35.84 0 64.512-28.672 64.512-63.488s-28.672-64.512-64.512-64.512-65.536 28.672-65.536 64.512 29.696 63.488 65.536 63.488zM239.616 606.976l142.336-460.8c2.048-5.12 7.168-9.216 12.288-9.216h389.12c6.144 0 11.264 4.096 13.312 9.216l141.312 443.392c0 1.024 0 2.048 0 3.072 0 8.192-6.144 13.312-13.312 13.312l-685.056 1.024zM226.304 648.96h698.368c30.72 0 56.32-24.576 56.32-55.296 0-6.144-1.024-11.264-3.072-17.408l-141.312-443.392c-7.168-22.528-28.672-38.912-53.248-38.912h-389.12c-23.552 0-46.080 16.384-53.248 39.936l-150.528 487.424c-10.24 35.84-26.624 68.608-49.152 99.328-20.48 27.648-45.056 40.96-76.8 40.96-12.288 0-21.504 9.216-21.504 21.504s9.216 21.504 21.504 21.504c46.080 0 83.968-20.48 111.616-59.392 21.504-30.72 38.912-62.464 50.176-96.256z" />
<glyph unicode="&#xe900;" glyph-name="link" d="M725.336 52.664h-96c-17.664 0-32 14.336-32 32s14.336 32 32 32h96c129.406 0 234.664 105.305 234.664 234.672 0 129.359-105.258 234.664-234.664 234.664h-96c-17.664 0-32 14.336-32 32s14.336 32 32 32h96c164.688 0 298.664-134.016 298.664-298.664 0-164.656-133.977-298.672-298.664-298.672zM394.664 52.664h-96c-164.688 0-298.664 134.016-298.664 298.672 0 164.648 133.977 298.664 298.664 298.664h96c17.664 0 32-14.336 32-32s-14.336-32-32-32h-96c-129.406 0-234.664-105.305-234.664-234.664 0-129.367 105.258-234.672 234.664-234.672h96c17.664 0 32-14.336 32-32s-14.336-32-32-32zM650.664 319.336h-277.328c-17.664 0-32 14.336-32 32s14.336 32 32 32h277.328c17.664 0 32-14.336 32-32s-14.336-32-32-32z" />
<glyph unicode="&#xe901;" glyph-name="cta" d="M217.066 552.514c-2.688 6.534-8.986 10.75-16.050 10.75-0.006 0-0.014 0-0.022 0-7.072-0.008-13.37-4.244-16.044-10.79-0.046-0.112-0.090-0.224-0.132-0.336l-39.034-102.486c-2.95-7.742 0.936-16.408 8.678-19.356 7.74-2.948 16.408 0.938 19.356 8.678l6.042 15.864h42.008l5.97-15.82c2.268-6.006 7.974-9.708 14.038-9.708 1.758 0 3.55 0.312 5.292 0.97 7.75 2.924 11.664 11.58 8.738 19.33l-38.678 102.492c-0.052 0.138-0.104 0.276-0.162 0.412zM191.288 484.84l9.674 25.402 9.586-25.402zM816.836 431.204c7.018 2.192 11.552 8.714 11.552 16.758l-0.972 100.448c-0.080 8.284-6.81 14.974-15.144 14.854-8.284-0.080-14.934-6.86-14.854-15.144l0.55-56.802-45.080 65.276c-3.73 5.4-10.538 7.75-16.806 5.796s-10.536-7.756-10.536-14.32v-103.756c0-8.284 6.716-15 15-15s15 6.716 15 15v55.64l42.816-62c4.33-6.254 11.582-8.906 18.474-6.75zM512.878 548.266v-103.95c0-8.284 6.716-15 15-15s15 6.716 15 15v103.95c0 8.284-6.716 15-15 15s-15-6.716-15-15zM335.618 533.266c7.412 0 14.556-2.18 20.662-6.306 6.864-4.636 16.188-2.834 20.826 4.032 4.638 6.864 2.834 16.188-4.032 20.826-11.084 7.488-24.036 11.448-37.458 11.448-36.93 0-66.976-30.044-66.976-66.976 0-36.93 30.044-66.976 66.976-66.976 14.816 0 28.13 4.882 38.5 14.118 2.032 1.808 3.96 3.798 5.736 5.916 5.324 6.348 4.494 15.808-1.852 21.132-6.348 5.324-15.808 4.494-21.132-1.854-0.844-1.006-1.752-1.944-2.702-2.79-4.86-4.328-11.1-6.522-18.55-6.522-20.388 0-36.976 16.588-36.976 36.976s16.59 36.976 36.978 36.976zM446.338 429.314c8.284 0 15 6.716 15 15v88.95h13.82c8.284 0 15 6.716 15 15s-6.716 15-15 15h-57.408c-8.284 0-15-6.716-15-15s6.716-15 15-15h13.588v-88.95c0-8.284 6.716-15 15-15zM567.58 496.29c0-36.93 30.044-66.976 66.974-66.976s66.976 30.044 66.976 66.976c0 36.93-30.044 66.976-66.976 66.976-36.93 0-66.974-30.046-66.974-66.976zM671.53 496.29c0-20.388-16.586-36.976-36.976-36.976-20.388 0-36.974 16.588-36.974 36.976s16.586 36.976 36.974 36.976c20.39 0 36.976-16.588 36.976-36.976zM1017.576 235.4l-232.314 161.896c-4.772 3.326-11.038 3.592-16.076 0.684s-7.94-8.468-7.446-14.264l24.048-282.138c0.474-5.574 4.012-10.422 9.176-12.572s11.096-1.25 15.39 2.338l54.438 45.512 56.378-112.236c1.854-3.69 5.148-6.452 9.102-7.636 1.41-0.422 2.858-0.63 4.3-0.63 2.608 0 5.2 0.68 7.5 2.010l69.42 40.082c3.576 2.064 6.142 5.512 7.096 9.53 0.952 4.018 0.206 8.25-2.062 11.702l-69.008 104.944 66.632 24.386c5.254 1.922 9 6.61 9.72 12.158 0.724 5.548-1.704 11.036-6.294 14.234zM919.43 206.286c-4.302-1.574-7.65-5.030-9.086-9.38-1.438-4.35-0.808-9.12 1.708-12.948l70.676-107.482-41.886-24.184-57.742 114.948c-2.056 4.094-5.872 7.024-10.358 7.954-1.012 0.21-2.032 0.312-3.046 0.312-3.486 0-6.898-1.216-9.622-3.492l-46.844-39.166-18.884 221.546 182.422-127.128zM717.876 334.936h-638.748c-27.088 0-49.128 22.038-49.128 49.128v224.452c0 27.090 22.040 49.128 49.128 49.128h833.678c27.090 0 49.128-22.040 49.128-49.128v-224.452c0-13.496-5.48-26.124-15.432-35.556-6.012-5.698-6.266-15.192-0.568-21.206 5.7-6.014 15.194-6.268 21.206-0.568 15.988 15.156 24.794 35.516 24.794 57.33v224.452c0 43.632-35.498 79.128-79.128 79.128h-833.678c-43.63 0-79.128-35.496-79.128-79.128v-224.452c0-43.632 35.498-79.128 79.128-79.128h638.746c8.284 0 15 6.716 15 15s-6.714 15-14.998 15z" />
</font>
</defs>
</svg>
